<?xml version="1.0" standalone="no"?>
<!DOCTYPE svg PUBLIC "-//W3C//DTD SVG 1.1//EN" "http://www.w3.org/Graphics/SVG/1.1/DTD/svg11.dtd" >
<svg xmlns="http://www.w3.org/2000/svg" xmlns:xlink="http://www.w3.org/1999/xlink" version="1.1">
<metadata>
Created by FontForge 20190801 at Mon Sep  5 16:52:11 2016
 By root
Copyright (c) 2013-2015 by Lucas Sharp. All rights reserved.
</metadata>
<defs>
<font id="SharpSansDisplayNo1-Medium" horiz-adv-x="588" >
  <font-face 
    font-family="Sharp Sans Display No1 Medium"
    font-weight="500"
    font-stretch="normal"
    units-per-em="1000"
    panose-1="0 0 0 0 0 0 0 0 0 0"
    ascent="750"
    descent="-250"
    x-height="500"
    cap-height="730"
    bbox="-70 -281 1344 1083"
    underline-thickness="50"
    underline-position="-100"
    unicode-range="U+000D-1004E1"
  />
<missing-glyph horiz-adv-x="926" 
d="M100 730h726v-730h-726v730zM178 75h570v580h-570v-580zM276 216l143 149l-145 152l46 46l144 -151l144 151l46 -46l-145 -152l141 -147l-46 -46l-140 146l-142 -148z" />
    <glyph glyph-name=".notdef" horiz-adv-x="926" 
d="M100 730h726v-730h-726v730zM178 75h570v580h-570v-580zM276 216l143 149l-145 152l46 46l144 -151l144 151l46 -46l-145 -152l141 -147l-46 -46l-140 146l-142 -148z" />
    <glyph glyph-name="NULL" horiz-adv-x="0" 
 />
    <glyph glyph-name="nonmarkingreturn" unicode="&#xd;" horiz-adv-x="198" 
 />
    <glyph glyph-name="space" unicode=" " horiz-adv-x="198" 
 />
    <glyph glyph-name="exclam" unicode="!" horiz-adv-x="240" 
d="M99 178q-3 36 -6.5 89.5t-5.5 113.5t-3.5 121t-1.5 111v117h78v-117q0 -50 -1.5 -111t-3.5 -121t-5.5 -113.5t-6.5 -89.5h-44zM60 52q0 26 17.5 43.5t43.5 17.5q27 0 44.5 -17.5t17.5 -43.5t-17.5 -44t-44.5 -18t-44 18t-17 44z" />
    <glyph glyph-name="quotedbl" unicode="&#x22;" horiz-adv-x="302" 
d="M81 500q-2 9 -6 26.5t-7.5 38t-6 42t-2.5 39.5v84h68v-84q0 -17 -2.5 -38.5t-6 -42t-7.5 -38.5l-6 -27h-24zM198 500q-2 9 -6 26.5t-7.5 38t-6 42t-2.5 39.5v84h68v-84q0 -17 -2.5 -38.5t-6 -42t-7.5 -38.5l-6 -27h-24z" />
    <glyph glyph-name="numbersign" unicode="#" horiz-adv-x="833" 
d="M520 188h-206v-188h-78v188h-191v75h191v210h-191v75h191v182h78v-182h206v182h78v-182h190v-75h-190v-210h190v-75h-190v-188h-78v188zM314 263h206v210h-206v-210z" />
    <glyph glyph-name="dollar" unicode="$" 
d="M547 200q0 -37 -14.5 -71.5t-41.5 -63t-65.5 -47.5t-86.5 -25v-113h-78v112q-78 6 -131 37t-95 82l59 55q32 -44 71 -70.5t97 -32.5v296q-35 12 -70 27t-63.5 37t-46.5 53.5t-18 75.5q0 37 13.5 69.5t38.5 57t61.5 40t83.5 19.5v102h78v-103q69 -8 116 -36.5t81 -73.5
l-63 -47q-23 35 -55 58t-80 31v-259q36 -13 73.5 -28.5t67.5 -39t49 -58t19 -84.5zM467 199q0 28 -10.5 49t-28 36.5t-41 27.5t-49.5 21v-269q61 10 95 46.5t34 88.5zM143 552q0 -23 9.5 -41t26 -31.5t38 -24t45.5 -19.5v235q-57 -8 -88 -39.5t-31 -79.5z" />
    <glyph glyph-name="percent" unicode="%" horiz-adv-x="856" 
d="M133 571q0 -22 8 -41t22 -33.5t32.5 -22.5t39.5 -8t39.5 8t32 22.5t21.5 33.5t8 41t-8 41t-21.5 33t-32 22t-39.5 8t-39.5 -8t-32.5 -22t-22 -33t-8 -41zM464 159q0 35 13 66t36 54t54 36t66 13t66 -13t54 -36t36.5 -54t13.5 -66t-13.5 -66t-36.5 -54t-54 -36.5
t-66 -13.5t-66 13.5t-54 36.5t-36 54t-13 66zM698 730h99l-627 -730h-99zM532 159q0 -22 8 -41t21.5 -33.5t32 -22.5t39.5 -8t39.5 8t32.5 22.5t22 33.5t8 41t-8 41t-22 33t-32.5 22t-39.5 8t-39.5 -8t-32 -22t-21.5 -33t-8 -41zM65 571q0 35 13.5 66t36.5 54t54 36t66 13
t65.5 -13t53.5 -36t36.5 -54t13.5 -66t-13.5 -66t-36.5 -54t-53.5 -36.5t-65.5 -13.5t-66 13.5t-54 36.5t-36.5 54t-13.5 66z" />
    <glyph glyph-name="ampersand" unicode="&#x26;" horiz-adv-x="759" 
d="M545 70q-45 -37 -99 -59t-117 -22q-77 0 -130.5 21.5t-88 56t-50 76.5t-15.5 83q0 74 37.5 130t97.5 89q-21 29 -32 59t-11 66q0 34 13 65t37 54.5t59 37t79 13.5q33 0 61 -8t50 -21t39 -30t29 -36l-64 -42q-17 26 -44 47.5t-71 21.5q-25 0 -45 -8t-34 -22t-21.5 -32.5
t-7.5 -39.5q0 -23 6.5 -42.5t21 -40t37.5 -45t56 -57.5l213 -214q35 42 56 91.5t28 98.5h-118v73h194v-33q0 -68 -29 -142t-83 -136l123 -123h-106zM329 58q48 0 90.5 16t77.5 44l-222 222l-50 51q-49 -28 -75.5 -68t-26.5 -96q0 -30 12 -60t37.5 -54t64.5 -39.5t92 -15.5z
" />
    <glyph glyph-name="quotesingle" unicode="'" horiz-adv-x="185" 
d="M81 500q-2 9 -6 26.5t-7.5 38t-6 42t-2.5 39.5v84h68v-84q0 -17 -2.5 -38.5t-6 -42t-7.5 -38.5l-6 -27h-24z" />
    <glyph glyph-name="parenleft" unicode="(" horiz-adv-x="431" 
d="M326 -247q-57 40 -107.5 89t-88 110t-59.5 135t-22 163q0 90 22 163.5t59.5 134t87.5 110t106 90.5l54 -61q-54 -38 -99 -82t-77.5 -97t-51 -117t-18.5 -140q0 -77 18 -141t51 -117.5t78.5 -97.5t99.5 -81l-53 -61v0z" />
    <glyph glyph-name="parenright" unicode=")" horiz-adv-x="431" 
d="M299 250q0 76 -18.5 140t-51 117t-77.5 97t-99 82l54 61q56 -41 106 -90.5t87.5 -110t59.5 -134t22 -163.5q0 -89 -22 -163t-59.5 -135t-88 -110t-107.5 -89l-53 61q54 37 99.5 81t78.5 97.5t51 117.5t18 141z" />
    <glyph glyph-name="asterisk" unicode="*" horiz-adv-x="436" 
d="M235 524l18 -148h-70l17 148l-119 -89l-34 61l136 58l-136 60l35 59l118 -89l-17 146h70l-18 -146l118 88l35 -60l-136 -58l136 -58l-36 -60z" />
    <glyph glyph-name="plus" unicode="+" horiz-adv-x="473" 
d="M52 398h152v151h66v-151h152v-66h-152v-153h-66v153h-152v66z" />
    <glyph glyph-name="comma" unicode="," horiz-adv-x="213" 
d="M71 87h88l-65 -204h-62z" />
    <glyph glyph-name="hyphen" unicode="-" horiz-adv-x="473" 
d="M52 284h370v-68h-370v68z" />
    <glyph glyph-name="period" unicode="." horiz-adv-x="213" 
d="M45 52q0 26 17.5 43.5t43.5 17.5q27 0 44.5 -17.5t17.5 -43.5t-17.5 -44t-44.5 -18t-44 18t-17 44z" />
    <glyph glyph-name="slash" unicode="/" horiz-adv-x="482" 
d="M373 730h83l-346 -730h-83z" />
    <glyph glyph-name="zero" unicode="0" 
d="M293 61q78 0 116.5 43.5t38.5 116.5v281q0 80 -39 123.5t-114 43.5q-78 0 -116.5 -46t-38.5 -121v-280q0 -75 37.5 -118t115.5 -43zM294 -10q-114 0 -173 63t-59 168v281q0 51 16.5 95t47 75.5t73.5 49.5t95 18q54 0 97 -18.5t73 -50.5t46 -75.5t16 -93.5v-281
q0 -108 -60 -169.5t-172 -61.5z" />
    <glyph glyph-name="one" unicode="1" 
d="M42 75h208v501q-16 -23 -50.5 -35t-68.5 -12h-12v81h5q36 0 60.5 11.5t40 29t22 38.5t6.5 41h75v-655h218v-75h-504v75z" />
    <glyph glyph-name="two" unicode="2" 
d="M60 77q0 43 17.5 79t45.5 67.5t64 59t72 53.5q33 24 65.5 47.5t58 47.5t41.5 50.5t16 56.5q0 58 -39.5 95t-109.5 37q-57 0 -99 -29.5t-67 -77.5l-68 36q15 30 39 56t54 45t65.5 29.5t74.5 10.5q52 0 94.5 -16t72.5 -44t46.5 -64.5t16.5 -78.5t-18 -77t-47 -65.5
t-65 -57.5t-72 -52q-34 -24 -65.5 -47.5t-56 -48.5t-39.5 -52.5t-15 -59.5v-2h392v-75h-474v77z" />
    <glyph glyph-name="three" unicode="3" 
d="M286 -9q-86 0 -145 27t-102 80l62 51q34 -42 78 -65t107 -23q39 0 70.5 11t53.5 30t34 45t12 56q0 32 -13.5 57.5t-37.5 43.5t-56.5 28t-69.5 10h-71v74h71q72 0 115.5 33.5t43.5 92.5t-41.5 93.5t-114.5 34.5q-24 0 -49 -6t-47.5 -16.5t-41.5 -25.5t-31 -33l-64 45
q17 22 42 41.5t55.5 33.5t65.5 22.5t72 8.5q56 0 99 -15t72.5 -41t44.5 -62.5t15 -79.5q0 -57 -27.5 -98t-77.5 -64q57 -23 90.5 -67.5t33.5 -109.5q0 -47 -17 -85.5t-49 -67t-78 -44t-104 -15.5z" />
    <glyph glyph-name="four" unicode="4" 
d="M363 168h-321v72l320 490h79v-491h105v-71h-105v-168h-78v168zM363 239v361l-236 -361h236z" />
    <glyph glyph-name="five" unicode="5" 
d="M296 -10q-83 0 -146 36t-96 95l73 47q24 -45 65 -75t104 -30q36 0 66.5 12t52.5 34.5t34.5 54t12.5 69.5q0 42 -14.5 74t-38.5 54t-54.5 33t-62.5 11q-51 0 -89.5 -20.5t-63.5 -54.5l-78 25l56 375h374v-74h-308l-35 -228q27 22 63 35.5t81 13.5q48 0 92.5 -15t79.5 -45
t56 -76t21 -108q0 -54 -18 -99t-50.5 -77t-77.5 -49.5t-99 -17.5z" />
    <glyph glyph-name="six" unicode="6" 
d="M294 -10q-54 0 -99 19t-78 52t-51.5 77t-18.5 94q0 46 14.5 89.5t38.5 77.5l216 331h94l-172 -263q16 4 32.5 6t34.5 2q50 0 93 -18.5t75 -51t50 -77t18 -96.5q0 -51 -19 -95.5t-52.5 -77t-78.5 -51t-97 -18.5zM293 61q35 0 66.5 13.5t55 36.5t37 54.5t13.5 66.5
q0 36 -13.5 67.5t-37 54.5t-55 36.5t-66.5 13.5t-66 -13.5t-54 -36.5t-36.5 -54t-13.5 -67q0 -35 13.5 -66.5t36.5 -55t54 -37t66 -13.5z" />
    <glyph glyph-name="seven" unicode="7" 
d="M458 655h-416v75h504v-68l-304 -662h-85z" />
    <glyph glyph-name="eight" unicode="8" 
d="M294 -10q-61 0 -107 16.5t-77 45t-46.5 68t-15.5 86.5q0 58 30.5 105t84.5 75q-45 26 -69 67.5t-24 92.5q0 42 16 77.5t45 61.5t70.5 40.5t92.5 14.5q50 0 91.5 -14.5t71.5 -40.5t46.5 -61.5t16.5 -77.5q0 -51 -25.5 -92.5t-70.5 -67.5q54 -28 85 -75t31 -105
q0 -47 -16.5 -86.5t-48 -68t-77.5 -45t-104 -16.5zM294 61q41 0 73 11.5t53.5 31.5t33 46t11.5 56q0 29 -11 55t-32.5 46t-53.5 31.5t-74 11.5t-74 -11.5t-53.5 -31.5t-32.5 -46t-11 -55q0 -30 11.5 -56t33 -46t53.5 -31.5t73 -11.5zM294 420q39 0 67.5 9.5t47.5 26.5
t28.5 40t9.5 50q0 26 -10 48.5t-29 39.5t-48 27t-66 10q-36 0 -64.5 -10t-48 -27t-29.5 -39.5t-10 -48.5q0 -27 9.5 -50t28 -40t47 -26.5t67.5 -9.5z" />
    <glyph glyph-name="nine" unicode="9" 
d="M178 0l172 263q-16 -5 -33 -6.5t-34 -1.5q-50 0 -93 18.5t-75 51t-50 77t-18 96.5q0 51 19 95.5t52.5 77t78.5 51t97 18.5q54 0 99 -19t78 -52t51.5 -77t18.5 -94q0 -46 -14.5 -89.5t-38.5 -77.5l-216 -331h-94zM295 326q35 0 66 13.5t54 36.5t36.5 54t13.5 67
q0 35 -13.5 66.5t-36.5 55t-54 37t-66 13.5t-66.5 -13.5t-55 -37t-37 -54.5t-13.5 -66q0 -36 13.5 -67.5t37 -54.5t55 -36.5t66.5 -13.5z" />
    <glyph glyph-name="colon" unicode=":" horiz-adv-x="213" 
d="M45 52q0 26 17.5 43.5t43.5 17.5q27 0 44.5 -17.5t17.5 -43.5t-17.5 -44t-44.5 -18t-44 18t-17 44zM45 415q0 26 17.5 43.5t43.5 17.5q27 0 44.5 -17.5t17.5 -43.5t-17.5 -44t-44.5 -18t-44 18t-17 44z" />
    <glyph glyph-name="semicolon" unicode=";" horiz-adv-x="213" 
d="M71 87h88l-65 -204h-62zM45 415q0 26 17.5 43.5t43.5 17.5q27 0 44.5 -17.5t17.5 -43.5t-17.5 -44t-44.5 -18t-44 18t-17 44z" />
    <glyph glyph-name="less" unicode="&#x3c;" horiz-adv-x="473" 
d="M52 333v66l370 140v-70l-289 -103l289 -106v-70z" />
    <glyph glyph-name="equal" unicode="=" horiz-adv-x="473" 
d="M52 478h370v-67h-370v67zM52 315h370v-66h-370v66z" />
    <glyph glyph-name="greater" unicode="&#x3e;" horiz-adv-x="473" 
d="M52 260l289 106l-289 103v70l370 -140v-66l-370 -143v70z" />
    <glyph glyph-name="question" unicode="?" horiz-adv-x="547" 
d="M222 189q0 63 14 104.5t35.5 70t46 48.5t46 40t35.5 43.5t14 60.5q0 25 -10.5 46.5t-29.5 37t-44 24t-55 8.5q-59 0 -93.5 -26.5t-57.5 -66.5l-69 32q13 26 34.5 49.5t49.5 41t62.5 28t74.5 10.5q46 0 86 -13.5t69 -37.5t45.5 -58t16.5 -76q0 -47 -14.5 -77.5t-37 -53
t-48 -42t-48 -44.5t-37 -60t-14.5 -89v-9h-71v9zM197 52q0 26 17.5 43.5t43.5 17.5q27 0 44.5 -17.5t17.5 -43.5t-17.5 -44t-44.5 -18t-44 18t-17 44z" />
    <glyph glyph-name="at" unicode="@" horiz-adv-x="845" 
d="M422 -125q-78 0 -146 29.5t-118.5 80t-79.5 119t-29 146.5t30.5 146t82 119t120.5 80.5t147 29.5q82 0 149.5 -28t116 -75t75 -107.5t26.5 -126.5q0 -43 -10 -81t-29.5 -66t-49 -44.5t-68.5 -16.5q-42 0 -70 16t-42 41q-20 -26 -53.5 -43t-78.5 -17q-32 0 -62 12
t-52.5 35.5t-35 57t-7.5 77.5q5 45 23 78.5t43 55.5t54.5 33t59.5 11q38 0 66 -13t45 -35q2 14 2 22t1 13q0 5 1 7h76l-20 -181q-6 -54 8 -75.5t48 -21.5q39 0 59.5 36.5t20.5 96.5q0 52 -21 100.5t-60 86t-94 60t-122 22.5q-63 0 -118 -24t-96.5 -65.5t-65 -97
t-23.5 -118.5t23 -118.5t62.5 -97t94 -65.5t117.5 -24q66 0 120.5 24t96.5 66l54 -46q-23 -24 -52.5 -44.5t-64.5 -36t-74 -24.5t-80 -9zM410 146q23 0 42 9t32.5 25t21.5 36t10 43q3 22 -1.5 42t-15.5 35.5t-28 24.5t-39 9q-43 0 -76 -29.5t-38 -80.5q-3 -23 2.5 -44
t18 -36.5t30.5 -24.5t41 -9z" />
    <glyph glyph-name="A" unicode="A" horiz-adv-x="705" 
d="M310 730h84l277 -730h-81l-71 185h-333l-70 -185h-82zM214 259h277l-139 366z" />
    <glyph glyph-name="B" unicode="B" horiz-adv-x="632" 
d="M72 730h266q50 0 91.5 -13.5t71 -39t45.5 -61t16 -79.5q0 -52 -23.5 -93t-68.5 -64q54 -22 83 -67t29 -108q0 -47 -16.5 -85t-47 -64.5t-72.5 -41t-93 -14.5h-281v730zM150 340v-269h202q69 0 110 38t41 97q0 60 -39 97t-114 37h-200zM150 659v-247h196q67 0 102 35.5
t35 89.5t-39.5 88t-106.5 34h-187z" />
    <glyph glyph-name="C" unicode="C" horiz-adv-x="787" 
d="M425 -10q-78 0 -146 29.5t-119 80.5t-80.5 119t-29.5 146t29.5 146t80.5 119t119 80.5t146 29.5q52 0 100 -13.5t90 -38.5t76.5 -59.5t58.5 -76.5l-67 -39q-38 68 -105.5 110.5t-152.5 42.5q-63 0 -117 -24t-93.5 -65t-62 -95.5t-22.5 -116.5t22.5 -116.5t62 -95.5
t93.5 -65t117 -24q96 0 163 45.5t103 118.5l69 -36q-24 -45 -57.5 -82t-76.5 -64t-93.5 -41.5t-107.5 -14.5z" />
    <glyph glyph-name="D" unicode="D" horiz-adv-x="706" 
d="M72 730h204q85 0 155 -28t120 -77t77.5 -115.5t27.5 -144.5t-28.5 -145t-79 -115.5t-119.5 -76.5t-150 -28h-207v730zM150 658v-585h123q66 0 122 22.5t96 61.5t62.5 92.5t22.5 115.5q0 63 -21.5 116.5t-61 92.5t-96.5 61.5t-127 22.5h-120z" />
    <glyph glyph-name="E" unicode="E" horiz-adv-x="575" 
d="M72 730h443v-74h-365v-253h365v-74h-365v-254h365v-75h-443v730z" />
    <glyph glyph-name="F" unicode="F" horiz-adv-x="545" 
d="M72 730h413v-74h-335v-253h335v-74h-335v-329h-78v730z" />
    <glyph glyph-name="G" unicode="G" horiz-adv-x="845" 
d="M428 -10q-80 0 -149 29.5t-120 80.5t-80 119t-29 146t28.5 146t79.5 119t121 80.5t153 29.5q53 0 101 -13.5t89.5 -38.5t75.5 -60t58 -78l-68 -39q-37 70 -103 112.5t-153 42.5q-69 0 -124.5 -24t-95 -65t-61 -95.5t-21.5 -116.5t22 -116.5t62 -95.5t94.5 -65t119.5 -24
q64 0 114.5 19t86.5 53t57.5 80t28.5 99h-293v74h374v-22q0 -75 -24 -143.5t-71 -120.5t-115.5 -82.5t-157.5 -30.5z" />
    <glyph glyph-name="H" unicode="H" horiz-adv-x="685" 
d="M535 330h-385v-330h-78v730h78v-325h385v325h78v-730h-78v330z" />
    <glyph glyph-name="I" unicode="I" horiz-adv-x="240" 
d="M81 730h78v-730h-78v730z" />
    <glyph glyph-name="J" unicode="J" horiz-adv-x="469" 
d="M217 -10q-65 0 -112.5 29t-71.5 74l70 46q17 -33 44 -55.5t68 -22.5q50 0 79 33.5t29 95.5v540h78v-538q0 -97 -49.5 -149.5t-134.5 -52.5z" />
    <glyph glyph-name="K" unicode="K" horiz-adv-x="646" 
d="M287 385l-137 -161v-224h-78v730h78v-402l345 402h96l-249 -292l281 -438h-90z" />
    <glyph glyph-name="L" unicode="L" horiz-adv-x="533" 
d="M72 730h78v-655h326v-75h-404v730z" />
    <glyph glyph-name="M" unicode="M" horiz-adv-x="859" 
d="M72 730h77l277 -383l286 383h75v-730h-78v604l-285 -384l-274 374v-594h-78v730z" />
    <glyph glyph-name="N" unicode="N" horiz-adv-x="739" 
d="M72 730h87l430 -606v606h78v-730h-83l-434 611v-611h-78v730z" />
    <glyph glyph-name="O" unicode="O" horiz-adv-x="850" 
d="M425 -10q-78 0 -146 29.5t-119 80.5t-80.5 119t-29.5 146t29.5 146t80.5 119t119 80.5t146 29.5t146 -29.5t119 -80.5t80.5 -119t29.5 -146t-29.5 -146t-80.5 -119t-119 -80.5t-146 -29.5zM425 64q63 0 117 24t93.5 65t62 95.5t22.5 116.5t-22.5 116.5t-62 95.5t-93.5 65
t-117 24t-117 -24t-93.5 -65t-62 -95.5t-22.5 -116.5t22.5 -116.5t62 -95.5t93.5 -65t117 -24z" />
    <glyph glyph-name="P" unicode="P" horiz-adv-x="618" 
d="M72 730h228q60 0 109 -19.5t84 -53t54 -79.5t19 -99t-19 -99t-54 -80t-84 -53.5t-109 -19.5h-150v-227h-78v730zM150 658v-358h145q45 0 80.5 14t60.5 38t38 56.5t13 70.5t-13 71t-38 57t-60.5 37.5t-80.5 13.5h-145z" />
    <glyph glyph-name="Q" unicode="Q" horiz-adv-x="851" 
d="M425 -10q-78 0 -146 29.5t-119 80.5t-80.5 119t-29.5 146t29.5 146t80.5 119t119 80.5t146 29.5t146 -29.5t119 -80.5t80.5 -119t29.5 -146q0 -75 -28 -141t-77 -117l89 -107h-99l-48 57q-45 -32 -99 -49.5t-113 -17.5zM425 64q48 0 89.5 13t76.5 36l-166 203h96
l126 -152q35 40 54 91t19 110q0 62 -22.5 116.5t-62 95.5t-93.5 65t-117 24t-117 -24t-93.5 -65t-62 -95.5t-22.5 -116.5t22.5 -116.5t62 -95.5t93.5 -65t117 -24z" />
    <glyph glyph-name="R" unicode="R" horiz-adv-x="634" 
d="M72 730h264q54 0 99.5 -18t78.5 -49.5t51.5 -74t18.5 -90.5q0 -36 -11 -70t-31.5 -62.5t-50.5 -50.5t-67 -34l166 -281h-91l-153 264h-196v-264h-78v730zM150 658v-324h179q41 0 74 14t56 37t35 52.5t12 60.5q0 34 -12 63.5t-35 51t-55.5 33.5t-73.5 12h-180z" />
    <glyph glyph-name="S" unicode="S" horiz-adv-x="563" 
d="M281 -10q-89 0 -151 35.5t-107 98.5l66 50q37 -57 83 -85t109 -28q34 0 62.5 10.5t49 28.5t32 43.5t11.5 55.5q0 34 -15 57t-40 39.5t-57 28.5t-66 24q-38 13 -74.5 28.5t-65 38.5t-46.5 55.5t-18 80.5q0 40 17 74.5t47 60t71 40t89 14.5q78 0 132 -29t94 -81l-62 -46
q-56 87 -165 87q-31 0 -57 -9t-45.5 -25.5t-30.5 -38.5t-11 -47q0 -32 14.5 -53.5t38.5 -37.5t55.5 -27.5t65.5 -23.5q38 -13 75 -29t66.5 -39.5t48 -57.5t18.5 -84q0 -41 -16.5 -78.5t-47.5 -66.5t-74 -46.5t-96 -17.5z" />
    <glyph glyph-name="T" unicode="T" horiz-adv-x="609" 
d="M266 658h-220v72h517v-72h-219v-658h-78v658z" />
    <glyph glyph-name="U" unicode="U" horiz-adv-x="633" 
d="M316 -10q-54 0 -99.5 19t-78.5 52.5t-51.5 78.5t-18.5 98v492h78v-496q0 -35 13 -66t35.5 -54t54 -36.5t67.5 -13.5t67.5 13.5t54.5 36.5t36 54t13 66v496h78v-492q0 -53 -19 -98t-52 -78.5t-78.5 -52.5t-99.5 -19z" />
    <glyph glyph-name="V" unicode="V" horiz-adv-x="680" 
d="M34 730h81l225 -618l224 618h82l-267 -730h-79z" />
    <glyph glyph-name="W" unicode="W" horiz-adv-x="1070" 
d="M36 730h83l174 -609l202 609h75l200 -610l184 610h80l-225 -730h-79l-199 608l-201 -608h-80z" />
    <glyph glyph-name="X" unicode="X" horiz-adv-x="655" 
d="M327 314l-206 -314h-88l249 375l-232 355h88l191 -289l190 289h88l-233 -350l248 -380h-88z" />
    <glyph glyph-name="Y" unicode="Y" horiz-adv-x="619" 
d="M271 347l-242 383h87l194 -309l193 309h87l-241 -382v-348h-78v347z" />
    <glyph glyph-name="Z" unicode="Z" horiz-adv-x="603" 
d="M60 72l391 584h-379v74h471v-71l-391 -584h391v-75h-483v72z" />
    <glyph glyph-name="bracketleft" unicode="[" horiz-adv-x="376" 
d="M52 730h273v-74h-195v-812h195v-74h-273v960z" />
    <glyph glyph-name="backslash" unicode="\" horiz-adv-x="482" 
d="M27 730h83l346 -730h-83z" />
    <glyph glyph-name="bracketright" unicode="]" horiz-adv-x="376" 
d="M52 -157h195v813h-195v74h273v-960h-273v73z" />
    <glyph glyph-name="asciicircum" unicode="^" horiz-adv-x="498" 
d="M217 700h63l123 -168h-80l-74 104l-73 -104h-80z" />
    <glyph glyph-name="underscore" unicode="_" horiz-adv-x="573" 
d="M52 -10h470v-67h-470v67z" />
    <glyph glyph-name="grave" unicode="`" horiz-adv-x="498" 
d="M132 720h99l118 -162h-72z" />
    <glyph glyph-name="a" unicode="a" horiz-adv-x="632" 
d="M304 -10q-55 0 -102 20.5t-81 56t-53.5 82.5t-19.5 101t19 101t53 82.5t81 56t103 20.5q24 0 49.5 -6t50 -18t46.5 -29t38 -39v82h77v-500h-77v82q-16 -23 -38 -40t-46.5 -28.5t-50 -17.5t-49.5 -6zM308 60q40 0 74.5 15t59.5 40.5t39 60.5t14 74t-14 73.5t-39 60.5
t-59.5 41t-74.5 15q-38 0 -71.5 -15t-58 -40.5t-38.5 -60.5t-14 -74t14 -74t38.5 -60.5t58 -40.5t71.5 -15z" />
    <glyph glyph-name="b" unicode="b" horiz-adv-x="630" 
d="M326 -10q-49 0 -100.5 23.5t-83.5 68.5v-82h-74v730h75v-311q32 45 83 68t100 23q56 0 103 -20.5t81 -56t53 -82.5t19 -101t-19.5 -101t-53.5 -82.5t-81 -56t-102 -20.5zM322 60q38 0 71.5 15t58 40.5t38.5 60.5t14 74t-14 74t-38.5 60.5t-58 40.5t-71.5 15
q-40 0 -74.5 -15t-59.5 -41t-39 -60.5t-14 -73.5t14 -74t39 -60.5t59.5 -40.5t74.5 -15z" />
    <glyph glyph-name="c" unicode="c" horiz-adv-x="587" 
d="M311 -10q-57 0 -105.5 20.5t-83.5 55.5t-54.5 82.5t-19.5 101.5q0 56 20.5 104t55.5 82.5t83 54t103 19.5q82 0 144 -41.5t90 -107.5l-70 -30q-23 52 -64.5 80.5t-100.5 28.5q-39 0 -72.5 -15t-58 -40.5t-38.5 -60.5t-14 -74t14 -74t39 -60.5t59 -40.5t75 -15
q63 0 103.5 33t61.5 83l71 -30q-30 -68 -89.5 -112t-148.5 -44z" />
    <glyph glyph-name="d" unicode="d" horiz-adv-x="630" 
d="M304 -10q-55 0 -102 20.5t-81 56t-53.5 82.5t-19.5 101t19 101t53 82.5t81 56t103 20.5q24 0 49.5 -6t50 -17.5t46 -28.5t37.5 -39v311h75v-730h-74v82q-16 -23 -38 -40t-46.5 -28.5t-50 -17.5t-49.5 -6zM308 60q40 0 74.5 15t59.5 40.5t39 60.5t14 74t-14 73.5t-39 60.5
t-59.5 41t-74.5 15q-38 0 -71.5 -15t-58 -40.5t-38.5 -60.5t-14 -74t14 -74t38.5 -60.5t58 -40.5t71.5 -15z" />
    <glyph glyph-name="e" unicode="e" horiz-adv-x="612" 
d="M311 -10q-60 0 -108.5 19.5t-83 53.5t-53 81t-18.5 102q0 56 19.5 104.5t54 84t82 55.5t103.5 20q54 0 100.5 -18t81 -51t54.5 -79.5t20 -103.5v-33h-440q4 -37 19.5 -67.5t40.5 -52.5t57.5 -34t70.5 -12q61 0 103.5 28.5t65.5 74.5l67 -33q-35 -66 -93 -102.5
t-143 -36.5zM307 441q-34 0 -63.5 -11t-53 -30t-40 -46t-23.5 -58h357q-11 68 -57.5 106.5t-119.5 38.5z" />
    <glyph glyph-name="f" unicode="f" horiz-adv-x="352" 
d="M32 500h86v39q0 56 9 93t31 58.5t58.5 30.5t91.5 9h7v-71q-40 0 -63.5 -4.5t-36 -17.5t-16 -37t-3.5 -62v-38h119v-70h-119v-430h-78v430h-86v70z" />
    <glyph glyph-name="g" unicode="g" horiz-adv-x="633" 
d="M304 -10q-55 0 -102 20.5t-81 56t-53.5 82.5t-19.5 101t19 101t53 82.5t81 56t103 20.5q24 0 49.5 -6t50 -18t46.5 -29t38 -39v82h77v-491q0 -57 -17.5 -103.5t-49.5 -80t-77.5 -51.5t-102.5 -18q-92 0 -150 37.5t-85 100.5l76 25q18 -43 56.5 -69t102.5 -26
q41 0 73 13.5t53.5 38t33 58t11.5 73.5v76q-16 -23 -37.5 -40t-46.5 -29t-51 -18t-50 -6zM308 60q40 0 74.5 15t59.5 40.5t39 60.5t14 74t-14 73.5t-39 60.5t-59.5 41t-74.5 15q-38 0 -71.5 -15t-58 -40.5t-38.5 -60.5t-14 -74t14 -74t38.5 -60.5t58 -40.5t71.5 -15z" />
    <glyph glyph-name="h" unicode="h" horiz-adv-x="597" 
d="M68 730h76v-303q26 38 69.5 60.5t100.5 22.5q101 0 159 -61.5t58 -170.5v-278h-78v278q0 73 -37.5 117.5t-112.5 44.5q-34 0 -63 -12.5t-50 -34.5t-33 -52t-12 -64v-277h-77v730z" />
    <glyph glyph-name="i" unicode="i" horiz-adv-x="212" 
d="M145 500v-500h-78v500h78zM45 665q0 26 17.5 43.5t43.5 17.5q27 0 44.5 -17.5t17.5 -43.5t-17.5 -44t-44.5 -18t-44 18t-17 44z" />
    <glyph glyph-name="j" unicode="j" horiz-adv-x="212" 
d="M-53 -155q37 0 60.5 4t37 16.5t18 36t4.5 61.5v537h78v-538q0 -55 -9.5 -91.5t-31 -58.5t-57.5 -31.5t-88 -9.5h-12v74zM45 665q0 26 17.5 43.5t43.5 17.5q27 0 44.5 -17.5t17.5 -43.5t-17.5 -44t-44.5 -18t-44 18t-17 44z" />
    <glyph glyph-name="k" unicode="k" horiz-adv-x="536" 
d="M245 242l-101 -103v-139h-76v730h76v-502l266 272h98l-207 -212l208 -288h-90z" />
    <glyph glyph-name="l" unicode="l" horiz-adv-x="214" 
d="M68 730h78v-730h-78v730z" />
    <glyph glyph-name="m" unicode="m" horiz-adv-x="951" 
d="M67 500h76v-68q25 36 65.5 57t94.5 21q68 0 112.5 -28.5t65.5 -73.5q24 46 71 74t110 28q54 0 95.5 -16t70 -44.5t43 -68t14.5 -87.5v-294h-78v299q0 63 -39 102.5t-107 39.5q-31 0 -57.5 -10t-46.5 -29.5t-31.5 -47.5t-11.5 -63v-291h-77v308q0 60 -38.5 96.5
t-101.5 36.5q-33 0 -61 -11t-48.5 -31t-32 -50t-11.5 -67v-282h-77v500z" />
    <glyph glyph-name="n" unicode="n" horiz-adv-x="595" 
d="M67 500h76v-74q26 38 69.5 61t100.5 23q101 0 159 -61.5t58 -170.5v-278h-78v278q0 73 -37.5 117.5t-112.5 44.5q-34 0 -63 -12.5t-50 -34.5t-33 -52t-12 -64v-277h-77v500z" />
    <glyph glyph-name="o" unicode="o" horiz-adv-x="615" 
d="M307 -10q-54 0 -101 20t-82.5 55t-55.5 82.5t-20 102.5t20 102.5t55.5 82.5t82.5 55t101 20t101.5 -20t82.5 -55t55.5 -82.5t20.5 -102.5t-20.5 -102.5t-55.5 -82.5t-82.5 -55t-101.5 -20zM307 60q38 0 71.5 15t58 40.5t38.5 60.5t14 74t-14 74t-38.5 60.5t-58 40.5
t-71.5 15t-71 -15t-57.5 -40.5t-38.5 -60.5t-14 -74t14 -74t38.5 -60.5t57.5 -40.5t71 -15z" />
    <glyph glyph-name="p" unicode="p" horiz-adv-x="629" 
d="M325 -10q-53 0 -102.5 21t-80.5 65v-306h-75v730h74v-82q16 22 37.5 39t46 29t50.5 18t50 6q56 0 103 -20.5t81 -56t53 -82.5t19 -101t-19.5 -101t-53.5 -82.5t-81 -56t-102 -20.5zM321 60q38 0 71.5 15t58 40.5t38.5 60.5t14 74t-14 74t-38.5 60.5t-58 40.5t-71.5 15
q-40 0 -74.5 -15t-59.5 -41t-39 -60.5t-14 -73.5t14 -74t39 -60.5t59.5 -40.5t74.5 -15z" />
    <glyph glyph-name="q" unicode="q" horiz-adv-x="630" 
d="M304 -10q-55 0 -102 20.5t-81 56t-53.5 82.5t-19.5 101t19 101t53 82.5t81 56t103 20.5q24 0 49.5 -6t50 -18t46.5 -29t38 -39v82h74v-730h-75v306q-31 -44 -81 -65t-102 -21zM308 60q40 0 74.5 15t59.5 40.5t39 60.5t14 74t-14 73.5t-39 60.5t-59.5 41t-74.5 15
q-38 0 -71.5 -15t-58 -40.5t-38.5 -60.5t-14 -74t14 -74t38.5 -60.5t58 -40.5t71.5 -15z" />
    <glyph glyph-name="r" unicode="r" horiz-adv-x="389" 
d="M67 500h77v-78q23 38 62 58t93 20h46v-72h-49q-81 0 -116 -40.5t-35 -128.5v-259h-78v500z" />
    <glyph glyph-name="s" unicode="s" horiz-adv-x="476" 
d="M236 -10q-71 0 -124.5 22.5t-91.5 67.5l61 54q31 -36 68.5 -56t90.5 -20q60 0 90 24.5t30 59.5q0 21 -12.5 34t-32.5 21.5t-45 14.5t-51 12q-30 7 -60.5 16.5t-54.5 25t-39.5 39.5t-15.5 61q0 28 12.5 54t36.5 46.5t58.5 32.5t77.5 12q61 0 110.5 -19t84.5 -58l-59 -48
q-26 30 -57.5 44.5t-78.5 14.5q-54 0 -81.5 -23t-27.5 -55q0 -19 10.5 -31t28.5 -20t42.5 -14t53.5 -13q31 -7 62.5 -16.5t56.5 -26t41 -41.5t16 -63q0 -29 -12.5 -56t-37.5 -48.5t-62.5 -34.5t-87.5 -13z" />
    <glyph glyph-name="t" unicode="t" horiz-adv-x="363" 
d="M34 500h86v118l78 43v-161h118v-70h-118v-238q0 -38 4.5 -61.5t17.5 -36.5t36 -17t60 -4v-73h-11q-55 0 -90.5 9t-56.5 30.5t-29.5 58.5t-8.5 93v239h-86v70z" />
    <glyph glyph-name="u" unicode="u" horiz-adv-x="595" 
d="M286 -10q-110 0 -165.5 61.5t-55.5 170.5v278h78v-278q0 -73 37.5 -117.5t112.5 -44.5q34 0 63 12.5t50 34.5t33 52t12 64v277h77v-500h-76v74q-26 -38 -69 -61t-97 -23z" />
    <glyph glyph-name="v" unicode="v" horiz-adv-x="525" 
d="M30 500h84l150 -395l148 395h83l-194 -500h-77z" />
    <glyph glyph-name="w" unicode="w" horiz-adv-x="864" 
d="M36 500h82l126 -390l148 390h75l152 -392l128 392h81l-169 -500h-75l-155 393l-151 -393h-77z" />
    <glyph glyph-name="x" unicode="x" horiz-adv-x="533" 
d="M218 254l-188 246h92l145 -190l145 190h93l-191 -245l199 -255h-95l-153 196l-149 -196h-95z" />
    <glyph glyph-name="y" unicode="y" horiz-adv-x="560" 
d="M246 29l-216 471h85l172 -382l159 382h84l-315 -731h-82z" />
    <glyph glyph-name="z" unicode="z" horiz-adv-x="534" 
d="M50 74l336 354h-327v72h422v-74l-337 -355h340v-71h-434v74z" />
    <glyph glyph-name="braceleft" unicode="{" horiz-adv-x="403" 
d="M351 -230q-63 0 -105 11t-67.5 36.5t-36.5 67t-11 102.5v120q0 29 -3 49t-12.5 32.5t-28.5 18t-50 5.5v73q31 0 50 5.5t28.5 18t12.5 32.5t3 49v123q0 61 11 102.5t36.5 67t67.5 36.5t105 11h11v-71q-48 0 -78 -6.5t-47 -23t-23 -45t-6 -72.5v-123q0 -57 -14.5 -91
t-52.5 -50q38 -16 52.5 -50t14.5 -90v-120q0 -44 6 -72.5t23 -45t47 -23t78 -6.5v-71h-11z" />
    <glyph glyph-name="bar" unicode="|" horiz-adv-x="201" 
d="M62 730h78v-960h-78v960z" />
    <glyph glyph-name="braceright" unicode="}" horiz-adv-x="403" 
d="M42 -158q48 0 78 6.5t47 23t23 44.5t6 72v120q0 56 14 90t53 50q-38 16 -52.5 50t-14.5 91v123q0 44 -6 72t-23 44.5t-47 23t-78 6.5v72h11q63 0 105 -11t67.5 -36.5t36.5 -67t11 -102.5v-123q0 -29 3 -49t12.5 -32.5t28 -18t50.5 -5.5v-73q-32 0 -50.5 -5.5t-28 -18
t-12.5 -32.5t-3 -49v-120q0 -61 -11 -102.5t-36.5 -67t-67.5 -36.5t-105 -11h-11v72z" />
    <glyph glyph-name="asciitilde" unicode="~" horiz-adv-x="473" 
d="M68 560q2 53 27.5 85t70.5 32q25 0 43 -8t34 -18q15 -9 29 -17.5t30 -8.5q34 0 37 47h61q-1 -54 -25.5 -85.5t-71.5 -31.5q-29 0 -50 10.5t-38 21.5q-12 8 -23.5 13.5t-25.5 5.5q-32 0 -35 -46h-63v0z" />
    <glyph glyph-name="nonbreakingspace" unicode="&#xa0;" horiz-adv-x="198" 
 />
    <glyph glyph-name="exclamdown" unicode="&#xa1;" horiz-adv-x="240" 
d="M143 322q3 -36 6.5 -89.5t5.5 -113.5t3.5 -121t1.5 -111v-117h-78v117q0 50 1.5 111t3.5 121t5.5 113.5t6.5 89.5h44zM182 448q0 -26 -17.5 -43.5t-43.5 -17.5q-27 0 -44.5 17.5t-17.5 43.5t17.5 44t44.5 18t44 -18t17 -44z" />
    <glyph glyph-name="cent" unicode="&#xa2;" 
d="M273 -7q-50 7 -91.5 29.5t-71.5 57t-46.5 78t-16.5 92.5q0 51 17.5 94.5t47.5 77.5t71.5 56t89.5 29v123h78v-123q69 -9 123 -48t79 -98l-70 -30q-23 52 -67 80.5t-103 28.5q-39 0 -73.5 -15t-60 -40.5t-40 -60.5t-14.5 -74t15 -74t40.5 -60.5t60.5 -40.5t76 -15
q63 0 106 33t64 83l71 -30q-27 -62 -79.5 -103.5t-127.5 -50.5v-122h-78v123z" />
    <glyph glyph-name="sterling" unicode="&#xa3;" 
d="M60 405h95q-17 29 -29 63t-12 79q0 42 16 77.5t43 61t63 40t76 14.5q74 0 121.5 -30.5t79.5 -78.5l-67 -42q-26 41 -57.5 60t-79.5 19q-22 0 -43 -8.5t-37 -24.5t-26 -38.5t-10 -49.5q0 -42 14.5 -76t34.5 -66h225v-63h-186q21 -35 36.5 -75.5t15.5 -91.5q0 -32 -11 -63
q23 -21 43.5 -36t43.5 -15q22 0 30 12t8 36v92h79v-89q0 -36 -9 -60t-25.5 -37.5t-38.5 -19t-48 -5.5q-32 0 -60 18.5t-54 43.5q-21 -28 -52 -45t-72 -17q-59 0 -92.5 30.5t-33.5 76.5t30.5 75.5t80.5 29.5q35 0 63 -12t52 -30v11q0 56 -20.5 95.5t-46.5 75.5h-140v63z
M166 51q56 0 81 41q-22 20 -44.5 33.5t-46.5 13.5q-22 0 -34 -12.5t-12 -32.5q0 -21 16 -32t40 -11z" />
    <glyph glyph-name="currency" unicode="&#xa4;" horiz-adv-x="773" 
d="M391 102q-45 0 -85 13.5t-73 38.5l-92 -96l-46 46l92 95q-26 33 -40.5 74.5t-14.5 88.5t14 87.5t40 73.5l-93 98l46 46l93 -98q33 26 73.5 39.5t85.5 13.5t84.5 -13.5t71.5 -38.5l88 92l46 -46l-87 -91q27 -33 42 -74.5t15 -88.5q0 -48 -15.5 -90.5t-43.5 -75.5l87 -89
l-46 -46l-88 90q-32 -23 -71 -36t-83 -13zM391 172q38 0 71.5 15t58 40.5t38.5 60.5t14 74t-14 74t-38.5 60.5t-58 40.5t-71.5 15t-71 -15t-57.5 -40.5t-38.5 -60.5t-14 -74t14 -74t38.5 -60.5t57.5 -40.5t71 -15z" />
    <glyph glyph-name="yen" unicode="&#xa5;" 
d="M89 374h167v11l-218 345h87l170 -271l169 271h87l-217 -344v-12h165v-64h-165v-110h165v-64h-165v-136h-78v136h-167v64h167v110h-167v64z" />
    <glyph glyph-name="brokenbar" unicode="&#xa6;" horiz-adv-x="242" 
d="M62 730h78v-420h-78v420zM62 190h78v-420h-78v420z" />
    <glyph glyph-name="section" unicode="&#xa7;" horiz-adv-x="604" 
d="M300 -10q-54 0 -96 13.5t-71.5 35.5t-46.5 50t-21 57l78 19q5 -46 44.5 -79t114.5 -33q24 0 47.5 4.5t42 15t30 26t11.5 38.5q0 20 -12.5 33t-35 22t-54.5 16.5t-72 16.5q-106 25 -156 57t-50 89q0 42 27 75.5t72 46.5q-28 17 -43 40.5t-15 57.5t14.5 62t41 47.5t63 29.5
t81.5 10q51 0 89.5 -12.5t65.5 -33t42.5 -47t19.5 -54.5l-74 -17q-7 46 -40 74.5t-104 28.5q-25 0 -47.5 -5t-40 -15t-28 -26.5t-10.5 -38.5q0 -20 12.5 -33.5t35 -23t54.5 -17.5t72 -17q53 -13 91.5 -26.5t64 -30.5t38 -39t12.5 -50q0 -39 -27 -74t-71 -49q27 -16 42 -38.5
t15 -55.5q0 -35 -15.5 -62.5t-43 -47t-65 -30t-82.5 -10.5zM299 284q46 -11 84 -21q47 11 68.5 35t21.5 53q0 34 -47.5 55t-124.5 38q-45 9 -81 21q-44 -4 -68.5 -28.5t-24.5 -55.5q0 -20 12.5 -34.5t35 -25.5t54 -19.5t70.5 -17.5z" />
    <glyph glyph-name="dieresis" unicode="&#xa8;" horiz-adv-x="504" 
d="M107 611q0 24 16.5 40t39.5 16q24 0 40 -16t16 -40q0 -23 -16 -39.5t-40 -16.5q-25 0 -40.5 16.5t-15.5 39.5zM276 611q0 24 16.5 40t39.5 16q24 0 40 -16t16 -40q0 -23 -16 -39.5t-40 -16.5q-25 0 -40.5 16.5t-15.5 39.5z" />
    <glyph glyph-name="copyright" unicode="&#xa9;" horiz-adv-x="847" 
d="M424 -10q-78 0 -146 29.5t-119 80.5t-80.5 119t-29.5 146t29.5 146t80.5 119t119 80.5t146 29.5t146 -29.5t119 -80.5t80.5 -119t29.5 -146t-29.5 -146t-80.5 -119t-119 -80.5t-146 -29.5zM424 59q64 0 119 24t95 66t63 97.5t23 118.5t-23 118.5t-63 97.5t-95 66t-119 24
t-119 -24t-95 -66t-63 -97.5t-23 -118.5t23 -118.5t63 -97.5t95 -66t119 -24zM428 166q-43 0 -79.5 15.5t-63.5 42.5t-42 63.5t-15 77.5t15.5 77.5t42.5 63.5t63.5 42.5t78.5 15.5q57 0 103.5 -28t70.5 -72l-66 -40q-14 29 -42.5 48.5t-66.5 19.5q-26 0 -49 -10t-40 -27.5
t-27 -40.5t-10 -49q0 -27 10 -50t27 -40t40 -27t49 -10q39 0 68.5 20.5t42.5 51.5l67 -37q-24 -47 -71 -77t-106 -30z" />
    <glyph glyph-name="ordfeminine" unicode="&#xaa;" horiz-adv-x="410" 
d="M196 435q-26 0 -51.5 10t-45.5 29.5t-33 47t-13 63.5t13 64.5t33.5 47.5t46 29t51.5 10q32 0 57.5 -11t43.5 -30v35h58v-289h-58v36q-18 -20 -44 -31t-58 -11zM207 489q41 0 67 28.5t26 68.5t-26 68t-67 28t-68.5 -27t-27.5 -69q0 -41 27.5 -69t68.5 -28z" />
    <glyph glyph-name="guillemotleft" unicode="&#xab;" horiz-adv-x="464" 
d="M65 227v46l162 116v-57l-114 -83l114 -82v-56zM237 227v46l162 116v-57l-114 -83l114 -82v-56z" />
    <glyph glyph-name="logicalnot" unicode="&#xac;" horiz-adv-x="603" 
d="M490 452h-462v75h540v-324h-78v249z" />
    <glyph glyph-name="uni00AD" unicode="&#xad;" horiz-adv-x="473" 
d="M52 284h370v-68h-370v68z" />
    <glyph glyph-name="registered" unicode="&#xae;" horiz-adv-x="847" 
d="M424 -125q-78 0 -146 29.5t-119 80.5t-80.5 119t-29.5 146t29.5 146t80.5 119t119 80.5t146 29.5t146 -29.5t119 -80.5t80.5 -119t29.5 -146t-29.5 -146t-80.5 -119t-119 -80.5t-146 -29.5zM424 -56q64 0 119 24t95 66t63 97.5t23 118.5t-23 118.5t-63 97.5t-95 66
t-119 24t-119 -24t-95 -66t-63 -97.5t-23 -118.5t23 -118.5t63 -97.5t95 -66t119 -24zM291 445h145q34 0 61 -10t46 -27t29 -39t10 -47q0 -42 -21 -76t-63 -47l83 -128h-85l-106 175h35q35 0 58 19.5t23 53.5t-23.5 48.5t-56.5 14.5h-63v-311h-72v374z" />
    <glyph glyph-name="macron" unicode="&#xaf;" horiz-adv-x="498" 
d="M118 625h264v-67h-264v67z" />
    <glyph glyph-name="degree" unicode="&#xb0;" horiz-adv-x="431" 
d="M216 483q-27 0 -50.5 10t-41 27.5t-27.5 41t-10 50.5t10 50t27.5 40.5t41 27.5t50.5 10t50 -10t40.5 -27.5t27.5 -40.5t10 -50t-10 -50.5t-27.5 -41t-40.5 -27.5t-50 -10zM216 548q26 0 44.5 18.5t18.5 44.5t-18.5 44.5t-44.5 18.5t-44.5 -18.5t-18.5 -44.5t18.5 -44.5
t44.5 -18.5z" />
    <glyph glyph-name="plusminus" unicode="&#xb1;" horiz-adv-x="473" 
d="M52 499h152v151h66v-151h152v-67h-152v-152h-66v152h-152v67zM52 194h370v-67h-370v67z" />
    <glyph glyph-name="twosuperior" unicode="&#xb2;" horiz-adv-x="338" 
d="M35 374q0 27 10 48.5t26 39.5t36 33.5t40 29.5q33 23 59 44.5t26 49.5q0 23 -16.5 39.5t-48.5 16.5q-29 0 -48 -17t-31 -43l-60 30q19 42 54 66.5t85 24.5q31 0 56.5 -9.5t43 -25.5t27 -37.5t9.5 -45.5q0 -25 -9.5 -45t-24.5 -37t-34.5 -31.5t-38.5 -27.5
q-17 -12 -33.5 -23.5t-29 -23.5t-20 -25.5t-7.5 -29.5h198v-67h-269v66z" />
    <glyph glyph-name="threesuperior" unicode="&#xb3;" horiz-adv-x="321" 
d="M153 302q-41 0 -75 14t-61 46l60 45q29 -41 76 -41q31 0 50.5 17t19.5 46t-22.5 46t-57.5 17h-43v66h43q36 0 55 17t19 43t-18.5 41.5t-49.5 15.5q-26 0 -42.5 -11.5t-27.5 -31.5l-59 33q18 32 52 51.5t77 19.5q63 0 99 -31.5t36 -85.5q0 -30 -13.5 -53.5t-37.5 -38.5
q28 -15 44 -39.5t16 -58.5q0 -55 -36.5 -91t-103.5 -36z" />
    <glyph glyph-name="acute" unicode="&#xb4;" horiz-adv-x="498" 
d="M249 720h100l-145 -162h-72z" />
    <glyph glyph-name="mu" unicode="&#x3bc;" horiz-adv-x="598" 
d="M67 500h79v-272q0 -78 41.5 -123t108.5 -45q34 0 63 12.5t50 34.5t33 52t12 64v277h77v-500h-76v74q-26 -38 -69 -61t-99 -23q-46 0 -81.5 17.5t-60.5 44.5v-282h-78v730z" />
    <glyph glyph-name="mu" unicode="&#xb5;" horiz-adv-x="598" 
d="M67 500h79v-272q0 -78 41.5 -123t108.5 -45q34 0 63 12.5t50 34.5t33 52t12 64v277h77v-500h-76v74q-26 -38 -69 -61t-99 -23q-46 0 -81.5 17.5t-60.5 44.5v-282h-78v730z" />
    <glyph glyph-name="paragraph" unicode="&#xb6;" horiz-adv-x="603" 
d="M345 302h-91q-47 0 -86.5 16.5t-68.5 45.5t-45.5 68t-16.5 84t16.5 84t45.5 68t68.5 45.5t85.5 16.5h289v-730h-69v659h-60v-659h-68v302z" />
    <glyph glyph-name="periodcentered" unicode="&#xb7;" horiz-adv-x="213" 
d="M45 250q0 26 17.5 43.5t43.5 17.5q27 0 44.5 -17.5t17.5 -43.5t-17.5 -44t-44.5 -18t-44 18t-17 44z" />
    <glyph glyph-name="cedilla" unicode="&#xb8;" horiz-adv-x="498" 
d="M241 -234q-48 0 -83.5 15t-62.5 41l61 37q19 -15 37.5 -25.5t47.5 -10.5t48.5 12t19.5 29q0 36 -71 36h-41v100h65v-52q54 0 86.5 -23t32.5 -58q0 -22 -11 -40.5t-30.5 -32t-45 -21t-53.5 -7.5z" />
    <glyph glyph-name="onesuperior" unicode="&#xb9;" horiz-adv-x="293" 
d="M32 375h84v245q-9 -14 -29 -23.5t-40 -9.5h-7v74h3q21 0 35.5 6.5t23 16.5t12.5 22.5t4 23.5h68v-355h80v-67h-234v67z" />
    <glyph glyph-name="ordmasculine" unicode="&#xba;" horiz-adv-x="406" 
d="M203 435q-31 0 -58.5 12t-47.5 32t-32 47.5t-12 58.5t12 59t32 48t47.5 32t58.5 12t58.5 -12t48 -32t32 -48t11.5 -59t-11.5 -58.5t-32 -47.5t-48 -32t-58.5 -12zM203 492q19 0 36 7.5t29.5 20t19.5 29.5t7 36q0 39 -26.5 67t-65.5 28q-19 0 -36 -7.5t-29.5 -20.5
t-19.5 -30.5t-7 -36.5t7 -36t19.5 -29.5t29.5 -20t36 -7.5z" />
    <glyph glyph-name="guillemotright" unicode="&#xbb;" horiz-adv-x="464" 
d="M237 168l115 82l-115 83v57l162 -116v-46l-162 -116v56zM65 168l115 82l-115 83v57l162 -116v-46l-162 -116v56z" />
    <glyph glyph-name="onequarter" unicode="&#xbc;" horiz-adv-x="807" 
d="M645 97h-185v64l182 261h72v-261h61v-64h-61v-97h-69v97zM636 730h91l-527 -730h-91zM32 375h84v245q-9 -14 -29 -23.5t-40 -9.5h-7v74h3q21 0 35.5 6.5t23 16.5t12.5 22.5t4 23.5h68v-355h80v-67h-234v67zM645 161v155l-109 -155h109z" />
    <glyph glyph-name="onehalf" unicode="&#xbd;" horiz-adv-x="846" 
d="M636 730h91l-527 -730h-91zM539 66q0 27 10 48.5t26 39.5t36 33.5t40 29.5q33 23 59 44.5t26 49.5q0 23 -16.5 39.5t-48.5 16.5q-29 0 -48 -17t-31 -43l-60 30q19 42 54 66.5t85 24.5q31 0 56.5 -9.5t43 -25.5t27 -37.5t9.5 -45.5q0 -25 -9.5 -45t-24.5 -37t-34.5 -31.5
t-38.5 -27.5q-17 -12 -33.5 -23.5t-29 -23.5t-20 -25.5t-7.5 -29.5h198v-67h-269v66zM32 375h84v245q-9 -14 -29 -23.5t-40 -9.5h-7v74h3q21 0 35.5 6.5t23 16.5t12.5 22.5t4 23.5h68v-355h80v-67h-234v67z" />
    <glyph glyph-name="threequarters" unicode="&#xbe;" horiz-adv-x="807" 
d="M645 97h-185v64l182 261h72v-261h61v-64h-61v-97h-69v97zM636 730h91l-527 -730h-91zM153 302q-41 0 -75 14t-61 46l60 45q29 -41 76 -41q31 0 50.5 17t19.5 46t-22.5 46t-57.5 17h-43v66h43q36 0 55 17t19 43t-18.5 41.5t-49.5 15.5q-26 0 -42.5 -11.5t-27.5 -31.5
l-59 33q18 32 52 51.5t77 19.5q63 0 99 -31.5t36 -85.5q0 -30 -13.5 -53.5t-37.5 -38.5q28 -15 44 -39.5t16 -58.5q0 -55 -36.5 -91t-103.5 -36zM645 161v155l-109 -155h109z" />
    <glyph glyph-name="questiondown" unicode="&#xbf;" horiz-adv-x="547" 
d="M271 -240q-47 0 -86.5 13.5t-68.5 37.5t-45.5 58t-16.5 76q0 47 14.5 77.5t37 53t48 42t48 44.5t37 60t14.5 89v9h71v-9q0 -63 -14 -104.5t-35.5 -70t-46 -48.5t-46 -40t-35.5 -44t-14 -60q0 -26 10.5 -47t29.5 -36.5t44 -24t55 -8.5q58 0 93 26t58 67l69 -32
q-14 -26 -35 -49.5t-49 -41t-62.5 -28t-74.5 -10.5zM288 387q-27 0 -44.5 17.5t-17.5 43.5t17.5 44t44.5 18t44 -18t17 -44t-17.5 -43.5t-43.5 -17.5z" />
    <glyph glyph-name="Agrave" unicode="&#xc0;" horiz-adv-x="705" 
d="M310 730h84l277 -730h-81l-71 185h-333l-70 -185h-82zM214 259h277l-139 366zM167 950h99l118 -162h-72z" />
    <glyph glyph-name="Aacute" unicode="&#xc1;" horiz-adv-x="705" 
d="M310 730h84l277 -730h-81l-71 185h-333l-70 -185h-82zM214 259h277l-139 366zM424 950h100l-145 -162h-72z" />
    <glyph glyph-name="Acircumflex" unicode="&#xc2;" horiz-adv-x="705" 
d="M310 730h84l277 -730h-81l-71 185h-333l-70 -185h-82zM214 259h277l-139 366zM312 950h66l119 -162h-80l-72 100l-71 -100h-81z" />
    <glyph glyph-name="Atilde" unicode="&#xc3;" horiz-adv-x="705" 
d="M310 730h84l277 -730h-81l-71 185h-333l-70 -185h-82zM214 259h277l-139 366zM173 788q0 55 27.5 87.5t71.5 32.5q25 0 44 -8t37 -19q17 -11 32 -19.5t31 -8.5q18 0 28.5 13t10.5 39h62q0 -56 -25.5 -88.5t-74.5 -32.5q-29 0 -50.5 11t-40.5 22q-14 8 -26 15t-28 7
q-37 0 -37 -51h-62z" />
    <glyph glyph-name="Adieresis" unicode="&#xc4;" horiz-adv-x="705" 
d="M310 730h84l277 -730h-81l-71 185h-333l-70 -185h-82zM214 259h277l-139 366zM209 841q0 24 16.5 40t39.5 16q24 0 40 -16t16 -40q0 -23 -16 -39.5t-40 -16.5q-25 0 -40.5 16.5t-15.5 39.5zM378 841q0 24 16.5 40t39.5 16q24 0 40 -16t16 -40q0 -23 -16 -39.5t-40 -16.5
q-25 0 -40.5 16.5t-15.5 39.5z" />
    <glyph glyph-name="Aring" unicode="&#xc5;" horiz-adv-x="705" 
d="M295 690q-25 14 -40 39t-15 55q0 23 8.5 42.5t23 34t33.5 23t41 8.5q23 0 43 -8.5t34.5 -23t23 -34t8.5 -42.5q0 -28 -13 -51.5t-35 -37.5l264 -695h-81l-71 185h-333l-70 -185h-82zM214 259h277l-139 366zM346 734q22 0 37 14.5t15 35.5t-15 36.5t-37 15.5
q-20 0 -35 -15.5t-15 -36.5t15 -35.5t35 -14.5z" />
    <glyph glyph-name="AE" unicode="&#xc6;" horiz-adv-x="1026" 
d="M374 730h576v-74h-474l59 -253h415v-74h-398l59 -254h339v-75h-401l-42 181h-305l-86 -181h-88zM236 253h254l-83 360z" />
    <glyph glyph-name="Ccedilla" unicode="&#xc7;" horiz-adv-x="787" 
d="M424 -234q-48 0 -83.5 15t-62.5 41l61 37q19 -15 37.5 -25.5t47.5 -10.5t48.5 12t19.5 29q0 36 -71 36h-41v93q-70 8 -130 40.5t-104.5 82t-70 113.5t-25.5 136q0 78 29.5 146t80.5 119t119 80.5t146 29.5q52 0 100 -13.5t90 -38.5t76.5 -59.5t58.5 -76.5l-67 -39
q-38 68 -105.5 110.5t-152.5 42.5q-63 0 -117 -24t-93.5 -65t-62 -95.5t-22.5 -116.5t22.5 -116.5t62 -95.5t93.5 -65t117 -24q96 0 163 45.5t103 118.5l69 -36q-23 -43 -55 -79t-72 -62t-87.5 -41.5t-100.5 -18.5v-43q54 0 86.5 -23t32.5 -58q0 -22 -11 -40.5t-30.5 -32
t-45 -21t-53.5 -7.5z" />
    <glyph glyph-name="Egrave" unicode="&#xc8;" horiz-adv-x="575" 
d="M72 730h443v-74h-365v-253h365v-74h-365v-254h365v-75h-443v730zM118 950h99l118 -162h-72z" />
    <glyph glyph-name="Eacute" unicode="&#xc9;" horiz-adv-x="575" 
d="M72 730h443v-74h-365v-253h365v-74h-365v-254h365v-75h-443v730zM353 950h100l-145 -162h-72z" />
    <glyph glyph-name="Ecircumflex" unicode="&#xca;" horiz-adv-x="575" 
d="M72 730h443v-74h-365v-253h365v-74h-365v-254h365v-75h-443v730zM254 950h66l119 -162h-80l-72 100l-71 -100h-81z" />
    <glyph glyph-name="Edieresis" unicode="&#xcb;" horiz-adv-x="575" 
d="M72 730h443v-74h-365v-253h365v-74h-365v-254h365v-75h-443v730zM329 841q0 24 16.5 40t39.5 16q24 0 40 -16t16 -40q0 -23 -16 -39.5t-40 -16.5q-25 0 -40.5 16.5t-15.5 39.5zM160 841q0 24 16.5 40t39.5 16q24 0 40 -16t16 -40q0 -23 -16 -39.5t-40 -16.5
q-25 0 -40.5 16.5t-15.5 39.5z" />
    <glyph glyph-name="Igrave" unicode="&#xcc;" horiz-adv-x="240" 
d="M81 730h78v-730h-78v730zM-62 950h99l118 -162h-72z" />
    <glyph glyph-name="Iacute" unicode="&#xcd;" horiz-adv-x="240" 
d="M81 730h78v-730h-78v730zM195 950h100l-145 -162h-72z" />
    <glyph glyph-name="Icircumflex" unicode="&#xce;" horiz-adv-x="240" 
d="M81 730h78v-730h-78v730zM84 950h66l119 -162h-80l-72 100l-71 -100h-81z" />
    <glyph glyph-name="Idieresis" unicode="&#xcf;" horiz-adv-x="240" 
d="M81 730h78v-730h-78v730zM-37 851q0 24 16.5 40t39.5 16q24 0 40 -16t16 -40q0 -23 -16 -39.5t-40 -16.5q-25 0 -40.5 16.5t-15.5 39.5zM163 851q0 24 16.5 40t39.5 16q24 0 40 -16t16 -40q0 -23 -16 -39.5t-40 -16.5q-25 0 -40.5 16.5t-15.5 39.5z" />
    <glyph glyph-name="Eth" unicode="&#xd0;" horiz-adv-x="732" 
d="M23 402h77v328h202q85 0 155 -28t120 -77t77.5 -115.5t27.5 -144.5t-28.5 -145t-79 -115.5t-119.5 -76.5t-150 -28h-205v345h-77v57zM178 658v-256h202v-57h-202v-272h119q66 0 122.5 22.5t97.5 61.5t64 92.5t23 115.5q0 63 -22 116.5t-62.5 92.5t-98 61.5t-127.5 22.5
h-116z" />
    <glyph glyph-name="Ntilde" unicode="&#xd1;" horiz-adv-x="739" 
d="M72 730h87l430 -606v606h78v-730h-83l-434 611v-611h-78v730zM195 788q0 55 27.5 87.5t71.5 32.5q25 0 44 -8t37 -19q17 -11 32 -19.5t31 -8.5q18 0 28.5 13t10.5 39h62q0 -56 -25.5 -88.5t-74.5 -32.5q-29 0 -50.5 11t-40.5 22q-14 8 -26 15t-28 7q-37 0 -37 -51h-62z
" />
    <glyph glyph-name="Ograve" unicode="&#xd2;" horiz-adv-x="850" 
d="M425 -10q-78 0 -146 29.5t-119 80.5t-80.5 119t-29.5 146t29.5 146t80.5 119t119 80.5t146 29.5t146 -29.5t119 -80.5t80.5 -119t29.5 -146t-29.5 -146t-80.5 -119t-119 -80.5t-146 -29.5zM425 64q63 0 117 24t93.5 65t62 95.5t22.5 116.5t-22.5 116.5t-62 95.5t-93.5 65
t-117 24t-117 -24t-93.5 -65t-62 -95.5t-22.5 -116.5t22.5 -116.5t62 -95.5t93.5 -65t117 -24zM241 950h99l118 -162h-72z" />
    <glyph glyph-name="Oacute" unicode="&#xd3;" horiz-adv-x="850" 
d="M425 -10q-78 0 -146 29.5t-119 80.5t-80.5 119t-29.5 146t29.5 146t80.5 119t119 80.5t146 29.5t146 -29.5t119 -80.5t80.5 -119t29.5 -146t-29.5 -146t-80.5 -119t-119 -80.5t-146 -29.5zM425 64q63 0 117 24t93.5 65t62 95.5t22.5 116.5t-22.5 116.5t-62 95.5t-93.5 65
t-117 24t-117 -24t-93.5 -65t-62 -95.5t-22.5 -116.5t22.5 -116.5t62 -95.5t93.5 -65t117 -24zM499 950h100l-145 -162h-72z" />
    <glyph glyph-name="Ocircumflex" unicode="&#xd4;" horiz-adv-x="850" 
d="M425 -10q-78 0 -146 29.5t-119 80.5t-80.5 119t-29.5 146t29.5 146t80.5 119t119 80.5t146 29.5t146 -29.5t119 -80.5t80.5 -119t29.5 -146t-29.5 -146t-80.5 -119t-119 -80.5t-146 -29.5zM425 64q63 0 117 24t93.5 65t62 95.5t22.5 116.5t-22.5 116.5t-62 95.5t-93.5 65
t-117 24t-117 -24t-93.5 -65t-62 -95.5t-22.5 -116.5t22.5 -116.5t62 -95.5t93.5 -65t117 -24zM388 950h66l119 -162h-80l-72 100l-71 -100h-81z" />
    <glyph glyph-name="Otilde" unicode="&#xd5;" horiz-adv-x="850" 
d="M425 -10q-78 0 -146 29.5t-119 80.5t-80.5 119t-29.5 146t29.5 146t80.5 119t119 80.5t146 29.5t146 -29.5t119 -80.5t80.5 -119t29.5 -146t-29.5 -146t-80.5 -119t-119 -80.5t-146 -29.5zM425 64q63 0 117 24t93.5 65t62 95.5t22.5 116.5t-22.5 116.5t-62 95.5t-93.5 65
t-117 24t-117 -24t-93.5 -65t-62 -95.5t-22.5 -116.5t22.5 -116.5t62 -95.5t93.5 -65t117 -24zM246 788q0 55 27.5 87.5t71.5 32.5q25 0 44 -8t37 -19q17 -11 32 -19.5t31 -8.5q18 0 28.5 13t10.5 39h62q0 -56 -25.5 -88.5t-74.5 -32.5q-29 0 -50.5 11t-40.5 22
q-14 8 -26 15t-28 7q-37 0 -37 -51h-62z" />
    <glyph glyph-name="Odieresis" unicode="&#xd6;" horiz-adv-x="850" 
d="M283 841q0 24 16.5 40t39.5 16q24 0 40 -16t16 -40q0 -23 -16 -39.5t-40 -16.5q-25 0 -40.5 16.5t-15.5 39.5zM452 841q0 24 16.5 40t39.5 16q24 0 40 -16t16 -40q0 -23 -16 -39.5t-40 -16.5q-25 0 -40.5 16.5t-15.5 39.5zM425 -10q-78 0 -146 29.5t-119 80.5t-80.5 119
t-29.5 146t29.5 146t80.5 119t119 80.5t146 29.5t146 -29.5t119 -80.5t80.5 -119t29.5 -146t-29.5 -146t-80.5 -119t-119 -80.5t-146 -29.5zM425 64q63 0 117 24t93.5 65t62 95.5t22.5 116.5t-22.5 116.5t-62 95.5t-93.5 65t-117 24t-117 -24t-93.5 -65t-62 -95.5
t-22.5 -116.5t22.5 -116.5t62 -95.5t93.5 -65t117 -24z" />
    <glyph glyph-name="multiply" unicode="&#xd7;" horiz-adv-x="473" 
d="M69 242l122 122l-122 123l46 46l122 -123l122 122l46 -46l-122 -122l122 -121l-46 -46l-122 121l-122 -122z" />
    <glyph glyph-name="Oslash" unicode="&#xd8;" horiz-adv-x="850" 
d="M169 90q-55 52 -87 122.5t-32 152.5q0 78 29.5 146t80.5 119t119 80.5t146 29.5q57 0 107.5 -15.5t95.5 -44.5l74 95l50 -39l-74 -95q57 -51 89.5 -122.5t32.5 -153.5q0 -78 -29.5 -146t-80.5 -119t-119 -80.5t-146 -29.5q-57 0 -109 16t-97 45l-73 -94l-50 39zM425 64
q63 0 117 24t93.5 65t62 95.5t22.5 116.5q0 63 -23.5 118.5t-65.5 97.5l-366 -471q35 -22 75 -34t85 -12zM130 365q0 -63 22.5 -118t63.5 -97l366 471q-34 21 -73.5 33t-83.5 12q-63 0 -117 -24t-93.5 -65t-62 -95.5t-22.5 -116.5z" />
    <glyph glyph-name="Ugrave" unicode="&#xd9;" horiz-adv-x="633" 
d="M316 -10q-54 0 -99.5 19t-78.5 52.5t-51.5 78.5t-18.5 98v492h78v-496q0 -35 13 -66t35.5 -54t54 -36.5t67.5 -13.5t67.5 13.5t54.5 36.5t36 54t13 66v496h78v-492q0 -53 -19 -98t-52 -78.5t-78.5 -52.5t-99.5 -19zM138 950h99l118 -162h-72z" />
    <glyph glyph-name="Uacute" unicode="&#xda;" horiz-adv-x="633" 
d="M384 950h100l-145 -162h-72zM316 -10q-54 0 -99.5 19t-78.5 52.5t-51.5 78.5t-18.5 98v492h78v-496q0 -35 13 -66t35.5 -54t54 -36.5t67.5 -13.5t67.5 13.5t54.5 36.5t36 54t13 66v496h78v-492q0 -53 -19 -98t-52 -78.5t-78.5 -52.5t-99.5 -19z" />
    <glyph glyph-name="Ucircumflex" unicode="&#xdb;" horiz-adv-x="633" 
d="M316 -10q-54 0 -99.5 19t-78.5 52.5t-51.5 78.5t-18.5 98v492h78v-496q0 -35 13 -66t35.5 -54t54 -36.5t67.5 -13.5t67.5 13.5t54.5 36.5t36 54t13 66v496h78v-492q0 -53 -19 -98t-52 -78.5t-78.5 -52.5t-99.5 -19zM279 950h66l119 -162h-80l-72 100l-71 -100h-81z" />
    <glyph glyph-name="Udieresis" unicode="&#xdc;" horiz-adv-x="633" 
d="M176 841q0 24 16.5 40t39.5 16q24 0 40 -16t16 -40q0 -23 -16 -39.5t-40 -16.5q-25 0 -40.5 16.5t-15.5 39.5zM345 841q0 24 16.5 40t39.5 16q24 0 40 -16t16 -40q0 -23 -16 -39.5t-40 -16.5q-25 0 -40.5 16.5t-15.5 39.5zM316 -10q-54 0 -99.5 19t-78.5 52.5t-51.5 78.5
t-18.5 98v492h78v-496q0 -35 13 -66t35.5 -54t54 -36.5t67.5 -13.5t67.5 13.5t54.5 36.5t36 54t13 66v496h78v-492q0 -53 -19 -98t-52 -78.5t-78.5 -52.5t-99.5 -19z" />
    <glyph glyph-name="Yacute" unicode="&#xdd;" horiz-adv-x="619" 
d="M271 347l-242 383h87l194 -309l193 309h87l-241 -382v-348h-78v347zM381 950h100l-145 -162h-72z" />
    <glyph glyph-name="Thorn" unicode="&#xde;" horiz-adv-x="569" 
d="M72 730h78v-153h147q50 0 91 -15t70.5 -41.5t45.5 -63.5t16 -82t-16 -82t-45.5 -64t-70.5 -42t-91 -15h-147v-172h-78v730zM150 504v-260h141q69 0 108.5 36t39.5 95q0 57 -39.5 93t-108.5 36h-141z" />
    <glyph glyph-name="germandbls" unicode="&#xdf;" horiz-adv-x="552" 
d="M-47 -156q34 0 56 6.5t35 21t18 37.5t5 56v566q-1 45 13 82t40.5 64t64.5 42t85 15q44 0 81 -14.5t63.5 -40.5t41.5 -61.5t15 -76.5q0 -51 -23.5 -91.5t-67.5 -63.5q56 -23 90.5 -69.5t34.5 -112.5q0 -46 -14.5 -84.5t-42 -67t-67 -44.5t-88.5 -16q-61 0 -98 20v74
q20 -11 43 -17t55 -6q27 0 51.5 11t42.5 30t28.5 44.5t10.5 54.5t-11 54.5t-32 44.5t-50 30t-65 11h-19v72h19q26 0 49 9.5t40 26.5t27 40t10 51q0 25 -9 48t-25.5 40.5t-39.5 27.5t-51 10q-54 0 -91 -34t-37 -95v-573q0 -52 -9 -89t-29.5 -60.5t-54 -34.5t-82.5 -11h-13v73
z" />
    <glyph glyph-name="agrave" unicode="&#xe0;" horiz-adv-x="632" 
d="M304 -10q-55 0 -102 20.5t-81 56t-53.5 82.5t-19.5 101t19 101t53 82.5t81 56t103 20.5q24 0 49.5 -6t50 -18t46.5 -29t38 -39v82h77v-500h-77v82q-16 -23 -38 -40t-46.5 -28.5t-50 -17.5t-49.5 -6zM308 60q40 0 74.5 15t59.5 40.5t39 60.5t14 74t-14 73.5t-39 60.5
t-59.5 41t-74.5 15q-38 0 -71.5 -15t-58 -40.5t-38.5 -60.5t-14 -74t14 -74t38.5 -60.5t58 -40.5t71.5 -15zM133 720h99l118 -162h-72z" />
    <glyph glyph-name="aacute" unicode="&#xe1;" horiz-adv-x="632" 
d="M304 -10q-55 0 -102 20.5t-81 56t-53.5 82.5t-19.5 101t19 101t53 82.5t81 56t103 20.5q24 0 49.5 -6t50 -18t46.5 -29t38 -39v82h77v-500h-77v82q-16 -23 -38 -40t-46.5 -28.5t-50 -17.5t-49.5 -6zM308 60q40 0 74.5 15t59.5 40.5t39 60.5t14 74t-14 73.5t-39 60.5
t-59.5 41t-74.5 15q-38 0 -71.5 -15t-58 -40.5t-38.5 -60.5t-14 -74t14 -74t38.5 -60.5t58 -40.5t71.5 -15zM376 720h100l-145 -162h-72z" />
    <glyph glyph-name="acircumflex" unicode="&#xe2;" horiz-adv-x="632" 
d="M304 -10q-55 0 -102 20.5t-81 56t-53.5 82.5t-19.5 101t19 101t53 82.5t81 56t103 20.5q24 0 49.5 -6t50 -18t46.5 -29t38 -39v82h77v-500h-77v82q-16 -23 -38 -40t-46.5 -28.5t-50 -17.5t-49.5 -6zM308 60q40 0 74.5 15t59.5 40.5t39 60.5t14 74t-14 73.5t-39 60.5
t-59.5 41t-74.5 15q-38 0 -71.5 -15t-58 -40.5t-38.5 -60.5t-14 -74t14 -74t38.5 -60.5t58 -40.5t71.5 -15zM293 720h66l119 -162h-80l-72 100l-71 -100h-81z" />
    <glyph glyph-name="atilde" unicode="&#xe3;" horiz-adv-x="632" 
d="M304 -10q-55 0 -102 20.5t-81 56t-53.5 82.5t-19.5 101t19 101t53 82.5t81 56t103 20.5q24 0 49.5 -6t50 -18t46.5 -29t38 -39v82h77v-500h-77v82q-16 -23 -38 -40t-46.5 -28.5t-50 -17.5t-49.5 -6zM308 60q40 0 74.5 15t59.5 40.5t39 60.5t14 74t-14 73.5t-39 60.5
t-59.5 41t-74.5 15q-38 0 -71.5 -15t-58 -40.5t-38.5 -60.5t-14 -74t14 -74t38.5 -60.5t58 -40.5t71.5 -15zM154 558q0 55 27.5 87.5t71.5 32.5q25 0 44 -8t37 -19q17 -11 32 -19.5t31 -8.5q18 0 28.5 13t10.5 39h62q0 -56 -25.5 -88.5t-74.5 -32.5q-29 0 -50.5 11t-40.5 22
q-14 8 -26 15t-28 7q-37 0 -37 -51h-62z" />
    <glyph glyph-name="adieresis" unicode="&#xe4;" horiz-adv-x="632" 
d="M304 -10q-55 0 -102 20.5t-81 56t-53.5 82.5t-19.5 101t19 101t53 82.5t81 56t103 20.5q24 0 49.5 -6t50 -18t46.5 -29t38 -39v82h77v-500h-77v82q-16 -23 -38 -40t-46.5 -28.5t-50 -17.5t-49.5 -6zM308 60q40 0 74.5 15t59.5 40.5t39 60.5t14 74t-14 73.5t-39 60.5
t-59.5 41t-74.5 15q-38 0 -71.5 -15t-58 -40.5t-38.5 -60.5t-14 -74t14 -74t38.5 -60.5t58 -40.5t71.5 -15zM184 611q0 24 16.5 40t39.5 16q24 0 40 -16t16 -40q0 -23 -16 -39.5t-40 -16.5q-25 0 -40.5 16.5t-15.5 39.5zM353 611q0 24 16.5 40t39.5 16q24 0 40 -16t16 -40
q0 -23 -16 -39.5t-40 -16.5q-25 0 -40.5 16.5t-15.5 39.5z" />
    <glyph glyph-name="aring" unicode="&#xe5;" horiz-adv-x="632" 
d="M304 -10q-55 0 -102 20.5t-81 56t-53.5 82.5t-19.5 101t19 101t53 82.5t81 56t103 20.5q24 0 49.5 -6t50 -18t46.5 -29t38 -39v82h77v-500h-77v82q-16 -23 -38 -40t-46.5 -28.5t-50 -17.5t-49.5 -6zM308 60q40 0 74.5 15t59.5 40.5t39 60.5t14 74t-14 73.5t-39 60.5
t-59.5 41t-74.5 15q-38 0 -71.5 -15t-58 -40.5t-38.5 -60.5t-14 -74t14 -74t38.5 -60.5t58 -40.5t71.5 -15zM312 551q-22 0 -41 8.5t-33.5 23t-23 34t-8.5 41.5q0 23 8.5 42.5t23 34t33.5 23t41 8.5q23 0 43 -8.5t34.5 -23t23 -34t8.5 -42.5q0 -22 -8.5 -41.5t-23 -34
t-34.5 -23t-43 -8.5zM312 608q22 0 37 14.5t15 35.5t-15 36.5t-37 15.5q-20 0 -35 -15.5t-15 -36.5t15 -35.5t35 -14.5z" />
    <glyph glyph-name="ae" unicode="&#xe6;" horiz-adv-x="960" 
d="M659 -10q-77 0 -135 30.5t-91 84.5q-12 -22 -32 -43t-47 -37t-60 -25.5t-71 -9.5q-47 0 -81 10.5t-55.5 29t-32 43.5t-10.5 54q0 36 13.5 61.5t38 43.5t57 30t69.5 20q33 7 64.5 14t56.5 16t40 22t15 34q0 35 -32 57.5t-95 22.5q-71 0 -108.5 -33.5t-37.5 -84.5v-3h-72v2
q0 84 57.5 132.5t157.5 48.5q70 0 119 -23t70 -65q35 41 85 64.5t112 23.5q54 0 100.5 -18t81 -51t54.5 -79.5t20 -103.5v-32h-440q3 -37 19 -68t41 -53t58 -34t71 -12q61 0 103.5 28.5t65.5 74.5l67 -33q-35 -66 -93 -102.5t-143 -36.5zM226 54q36 0 65.5 12.5t52 31.5
t37.5 41t21 41q-7 29 -7 66q0 8 0.5 15t1.5 15q-12 -18 -48 -28.5t-92 -22.5q-31 -6 -56 -13.5t-42.5 -18t-27 -26.5t-9.5 -38q0 -32 24 -53.5t80 -21.5zM654 441q-34 0 -63.5 -11t-53 -30t-40 -46t-23.5 -58h357q-11 68 -57.5 106.5t-119.5 38.5z" />
    <glyph glyph-name="ccedilla" unicode="&#xe7;" horiz-adv-x="587" 
d="M318 -234q-48 0 -83.5 15t-62.5 41l61 37q19 -15 37.5 -25.5t47.5 -10.5t48.5 12t19.5 29q0 36 -71 36h-41v93q-50 6 -91.5 28.5t-71.5 56.5t-46.5 78t-16.5 94q0 56 20.5 104t55.5 82.5t83 54t103 19.5q82 0 144 -41.5t90 -107.5l-70 -30q-23 52 -64.5 80.5t-100.5 28.5
q-39 0 -72.5 -15t-58 -40.5t-38.5 -60.5t-14 -74t14 -74t39 -60.5t59 -40.5t75 -15q63 0 103.5 33t61.5 83l71 -30q-28 -63 -80 -105.5t-130 -49.5v-43q54 0 86.5 -23t32.5 -58q0 -22 -11 -40.5t-30.5 -32t-45 -21t-53.5 -7.5z" />
    <glyph glyph-name="egrave" unicode="&#xe8;" horiz-adv-x="612" 
d="M311 -10q-60 0 -108.5 19.5t-83 53.5t-53 81t-18.5 102q0 56 19.5 104.5t54 84t82 55.5t103.5 20q54 0 100.5 -18t81 -51t54.5 -79.5t20 -103.5v-33h-440q4 -37 19.5 -67.5t40.5 -52.5t57.5 -34t70.5 -12q61 0 103.5 28.5t65.5 74.5l67 -33q-35 -66 -93 -102.5
t-143 -36.5zM307 441q-34 0 -63.5 -11t-53 -30t-40 -46t-23.5 -58h357q-11 68 -57.5 106.5t-119.5 38.5zM134 720h99l118 -162h-72z" />
    <glyph glyph-name="eacute" unicode="&#xe9;" horiz-adv-x="612" 
d="M311 -10q-60 0 -108.5 19.5t-83 53.5t-53 81t-18.5 102q0 56 19.5 104.5t54 84t82 55.5t103.5 20q54 0 100.5 -18t81 -51t54.5 -79.5t20 -103.5v-33h-440q4 -37 19.5 -67.5t40.5 -52.5t57.5 -34t70.5 -12q61 0 103.5 28.5t65.5 74.5l67 -33q-35 -66 -93 -102.5
t-143 -36.5zM307 441q-34 0 -63.5 -11t-53 -30t-40 -46t-23.5 -58h357q-11 68 -57.5 106.5t-119.5 38.5zM377 720h100l-145 -162h-72z" />
    <glyph glyph-name="ecircumflex" unicode="&#xea;" horiz-adv-x="612" 
d="M311 -10q-60 0 -108.5 19.5t-83 53.5t-53 81t-18.5 102q0 56 19.5 104.5t54 84t82 55.5t103.5 20q54 0 100.5 -18t81 -51t54.5 -79.5t20 -103.5v-33h-440q4 -37 19.5 -67.5t40.5 -52.5t57.5 -34t70.5 -12q61 0 103.5 28.5t65.5 74.5l67 -33q-35 -66 -93 -102.5
t-143 -36.5zM307 441q-34 0 -63.5 -11t-53 -30t-40 -46t-23.5 -58h357q-11 68 -57.5 106.5t-119.5 38.5zM274 720h66l119 -162h-80l-72 100l-71 -100h-81z" />
    <glyph glyph-name="edieresis" unicode="&#xeb;" horiz-adv-x="612" 
d="M311 -10q-60 0 -108.5 19.5t-83 53.5t-53 81t-18.5 102q0 56 19.5 104.5t54 84t82 55.5t103.5 20q54 0 100.5 -18t81 -51t54.5 -79.5t20 -103.5v-33h-440q4 -37 19.5 -67.5t40.5 -52.5t57.5 -34t70.5 -12q61 0 103.5 28.5t65.5 74.5l67 -33q-35 -66 -93 -102.5
t-143 -36.5zM307 441q-34 0 -63.5 -11t-53 -30t-40 -46t-23.5 -58h357q-11 68 -57.5 106.5t-119.5 38.5zM340 611q0 24 16.5 40t39.5 16q24 0 40 -16t16 -40q0 -23 -16 -39.5t-40 -16.5q-25 0 -40.5 16.5t-15.5 39.5zM171 611q0 24 16.5 40t39.5 16q24 0 40 -16t16 -40
q0 -23 -16 -39.5t-40 -16.5q-25 0 -40.5 16.5t-15.5 39.5z" />
    <glyph glyph-name="igrave" unicode="&#xec;" horiz-adv-x="212" 
d="M145 500v-500h-78v500h78zM-70 720h99l118 -162h-72z" />
    <glyph glyph-name="iacute" unicode="&#xed;" horiz-adv-x="212" 
d="M145 500v-500h-78v500h78zM186 720h100l-145 -162h-72z" />
    <glyph glyph-name="icircumflex" unicode="&#xee;" horiz-adv-x="212" 
d="M145 500v-500h-78v500h78zM71 720h66l119 -162h-80l-72 100l-71 -100h-81z" />
    <glyph glyph-name="idieresis" unicode="&#xef;" horiz-adv-x="212" 
d="M145 500v-500h-78v500h78zM-55 620q0 24 16.5 40t39.5 16q24 0 40 -16t16 -40q0 -23 -16 -39.5t-40 -16.5q-25 0 -40.5 16.5t-15.5 39.5zM156 620q0 24 16.5 40t39.5 16q24 0 40 -16t16 -40q0 -23 -16 -39.5t-40 -16.5q-25 0 -40.5 16.5t-15.5 39.5z" />
    <glyph glyph-name="eth" unicode="&#xf0;" horiz-adv-x="604" 
d="M266 624q-59 48 -139 106h119q38 -31 74 -62l82 65l37 -40l-79 -63q100 -98 146 -194.5t46 -196.5q0 -51 -19 -95.5t-53 -77.5t-79.5 -52t-99.5 -19q-52 0 -97.5 18.5t-79 51t-53 77t-19.5 97.5q0 52 19 97t52 78t76.5 51.5t92.5 18.5q52 0 85 -13.5t56 -34.5
q-21 37 -51.5 74t-74.5 77l-77 -62l-38 40zM303 66q35 0 66 13.5t54.5 37t37 55t13.5 67.5q0 35 -13 66.5t-36.5 55t-54.5 37.5t-67 14q-35 0 -66.5 -13.5t-55 -37t-37.5 -55t-14 -67.5t14 -67.5t37.5 -55t55 -37t66.5 -13.5z" />
    <glyph glyph-name="ntilde" unicode="&#xf1;" horiz-adv-x="595" 
d="M67 500h76v-74q26 38 69.5 61t100.5 23q101 0 159 -61.5t58 -170.5v-278h-78v278q0 73 -37.5 117.5t-112.5 44.5q-34 0 -63 -12.5t-50 -34.5t-33 -52t-12 -64v-277h-77v500zM116 558q0 55 27.5 87.5t71.5 32.5q25 0 44 -8t37 -19q17 -11 32 -19.5t31 -8.5q18 0 28.5 13
t10.5 39h62q0 -56 -25.5 -88.5t-74.5 -32.5q-29 0 -50.5 11t-40.5 22q-14 8 -26 15t-28 7q-37 0 -37 -51h-62z" />
    <glyph glyph-name="ograve" unicode="&#xf2;" horiz-adv-x="615" 
d="M307 -10q-54 0 -101 20t-82.5 55t-55.5 82.5t-20 102.5t20 102.5t55.5 82.5t82.5 55t101 20t101.5 -20t82.5 -55t55.5 -82.5t20.5 -102.5t-20.5 -102.5t-55.5 -82.5t-82.5 -55t-101.5 -20zM307 60q38 0 71.5 15t58 40.5t38.5 60.5t14 74t-14 74t-38.5 60.5t-58 40.5
t-71.5 15t-71 -15t-57.5 -40.5t-38.5 -60.5t-14 -74t14 -74t38.5 -60.5t57.5 -40.5t71 -15zM131 720h99l118 -162h-72z" />
    <glyph glyph-name="oacute" unicode="&#xf3;" horiz-adv-x="615" 
d="M377 720h100l-145 -162h-72zM307 -10q-54 0 -101 20t-82.5 55t-55.5 82.5t-20 102.5t20 102.5t55.5 82.5t82.5 55t101 20t101.5 -20t82.5 -55t55.5 -82.5t20.5 -102.5t-20.5 -102.5t-55.5 -82.5t-82.5 -55t-101.5 -20zM307 60q38 0 71.5 15t58 40.5t38.5 60.5t14 74
t-14 74t-38.5 60.5t-58 40.5t-71.5 15t-71 -15t-57.5 -40.5t-38.5 -60.5t-14 -74t14 -74t38.5 -60.5t57.5 -40.5t71 -15z" />
    <glyph glyph-name="ocircumflex" unicode="&#xf4;" horiz-adv-x="615" 
d="M307 -10q-54 0 -101 20t-82.5 55t-55.5 82.5t-20 102.5t20 102.5t55.5 82.5t82.5 55t101 20t101.5 -20t82.5 -55t55.5 -82.5t20.5 -102.5t-20.5 -102.5t-55.5 -82.5t-82.5 -55t-101.5 -20zM307 60q38 0 71.5 15t58 40.5t38.5 60.5t14 74t-14 74t-38.5 60.5t-58 40.5
t-71.5 15t-71 -15t-57.5 -40.5t-38.5 -60.5t-14 -74t14 -74t38.5 -60.5t57.5 -40.5t71 -15zM274 720h66l119 -162h-80l-72 100l-71 -100h-81z" />
    <glyph glyph-name="otilde" unicode="&#xf5;" horiz-adv-x="615" 
d="M307 -10q-54 0 -101 20t-82.5 55t-55.5 82.5t-20 102.5t20 102.5t55.5 82.5t82.5 55t101 20t101.5 -20t82.5 -55t55.5 -82.5t20.5 -102.5t-20.5 -102.5t-55.5 -82.5t-82.5 -55t-101.5 -20zM307 60q38 0 71.5 15t58 40.5t38.5 60.5t14 74t-14 74t-38.5 60.5t-58 40.5
t-71.5 15t-71 -15t-57.5 -40.5t-38.5 -60.5t-14 -74t14 -74t38.5 -60.5t57.5 -40.5t71 -15zM138 558q0 55 27.5 87.5t71.5 32.5q25 0 44 -8t37 -19q17 -11 32 -19.5t31 -8.5q18 0 28.5 13t10.5 39h62q0 -56 -25.5 -88.5t-74.5 -32.5q-29 0 -50.5 11t-40.5 22q-14 8 -26 15
t-28 7q-37 0 -37 -51h-62z" />
    <glyph glyph-name="odieresis" unicode="&#xf6;" horiz-adv-x="615" 
d="M170 614q0 24 16.5 40t39.5 16q24 0 40 -16t16 -40q0 -23 -16 -39.5t-40 -16.5q-25 0 -40.5 16.5t-15.5 39.5zM339 614q0 24 16.5 40t39.5 16q24 0 40 -16t16 -40q0 -23 -16 -39.5t-40 -16.5q-25 0 -40.5 16.5t-15.5 39.5zM307 -10q-54 0 -101 20t-82.5 55t-55.5 82.5
t-20 102.5t20 102.5t55.5 82.5t82.5 55t101 20t101.5 -20t82.5 -55t55.5 -82.5t20.5 -102.5t-20.5 -102.5t-55.5 -82.5t-82.5 -55t-101.5 -20zM307 60q38 0 71.5 15t58 40.5t38.5 60.5t14 74t-14 74t-38.5 60.5t-58 40.5t-71.5 15t-71 -15t-57.5 -40.5t-38.5 -60.5t-14 -74
t14 -74t38.5 -60.5t57.5 -40.5t71 -15z" />
    <glyph glyph-name="divide" unicode="&#xf7;" horiz-adv-x="473" 
d="M52 398h370v-66h-370v66zM182 523q0 23 15.5 38.5t38.5 15.5q24 0 39.5 -15.5t15.5 -38.5t-15.5 -39t-39.5 -16t-39 16t-15 39zM182 206q0 23 15.5 38.5t38.5 15.5q24 0 39.5 -15.5t15.5 -38.5t-15.5 -39t-39.5 -16t-39 16t-15 39z" />
    <glyph glyph-name="oslash" unicode="&#xf8;" horiz-adv-x="615" 
d="M119 69q-33 35 -52 81t-19 100q0 55 20 102.5t55.5 82.5t82.5 55t101 20q38 0 73.5 -10.5t66.5 -29.5l51 63l48 -36l-53 -65q35 -35 54.5 -81.5t19.5 -100.5q0 -55 -20.5 -102.5t-55.5 -82.5t-82.5 -55t-101.5 -20q-78 0 -140 40l-53 -66l-49 38zM307 60q38 0 71.5 15
t58 40.5t38.5 60.5t14 74q0 35 -12 66.5t-32 56.5l-232 -286q20 -13 44 -20t50 -7zM126 250q0 -35 10.5 -66t30.5 -56l233 285q-20 13 -43.5 20t-49.5 7q-38 0 -71 -15t-57.5 -40.5t-38.5 -60.5t-14 -74z" />
    <glyph glyph-name="ugrave" unicode="&#xf9;" horiz-adv-x="595" 
d="M286 -10q-110 0 -165.5 61.5t-55.5 170.5v278h78v-278q0 -73 37.5 -117.5t112.5 -44.5q34 0 63 12.5t50 34.5t33 52t12 64v277h77v-500h-76v74q-26 -38 -69 -61t-97 -23zM121 720h99l118 -162h-72z" />
    <glyph glyph-name="uacute" unicode="&#xfa;" horiz-adv-x="595" 
d="M286 -10q-110 0 -165.5 61.5t-55.5 170.5v278h78v-278q0 -73 37.5 -117.5t112.5 -44.5q34 0 63 12.5t50 34.5t33 52t12 64v277h77v-500h-76v74q-26 -38 -69 -61t-97 -23zM364 720h100l-145 -162h-72z" />
    <glyph glyph-name="ucircumflex" unicode="&#xfb;" horiz-adv-x="595" 
d="M286 -10q-110 0 -165.5 61.5t-55.5 170.5v278h78v-278q0 -73 37.5 -117.5t112.5 -44.5q34 0 63 12.5t50 34.5t33 52t12 64v277h77v-500h-76v74q-26 -38 -69 -61t-97 -23zM259 720h66l119 -162h-80l-72 100l-71 -100h-81z" />
    <glyph glyph-name="udieresis" unicode="&#xfc;" horiz-adv-x="595" 
d="M286 -10q-110 0 -165.5 61.5t-55.5 170.5v278h78v-278q0 -73 37.5 -117.5t112.5 -44.5q34 0 63 12.5t50 34.5t33 52t12 64v277h77v-500h-76v74q-26 -38 -69 -61t-97 -23zM325 611q0 24 16.5 40t39.5 16q24 0 40 -16t16 -40q0 -23 -16 -39.5t-40 -16.5q-25 0 -40.5 16.5
t-15.5 39.5zM156 611q0 24 16.5 40t39.5 16q24 0 40 -16t16 -40q0 -23 -16 -39.5t-40 -16.5q-25 0 -40.5 16.5t-15.5 39.5z" />
    <glyph glyph-name="yacute" unicode="&#xfd;" horiz-adv-x="560" 
d="M246 29l-216 471h85l172 -382l159 382h84l-315 -731h-82zM351 720h100l-145 -162h-72z" />
    <glyph glyph-name="thorn" unicode="&#xfe;" horiz-adv-x="631" 
d="M326 -10q-59 0 -106 24t-78 61v-305h-74v960h74v-309q32 38 80.5 63.5t105.5 25.5q56 0 103 -20t80.5 -55t52.5 -82t19 -101t-19 -101.5t-53.5 -83.5t-81.5 -56.5t-103 -20.5zM323 60q40 0 74 15.5t58 42t37.5 61.5t13.5 73t-13 72.5t-37 60t-57.5 40.5t-73.5 15
q-39 0 -73.5 -15t-59.5 -40.5t-39.5 -60.5t-14.5 -74q0 -38 14.5 -72.5t39.5 -60.5t59 -41.5t72 -15.5z" />
    <glyph glyph-name="ydieresis" unicode="&#xff;" horiz-adv-x="560" 
d="M246 29l-216 471h85l172 -382l159 382h84l-315 -731h-82zM311 611q0 24 16.5 40t39.5 16q24 0 40 -16t16 -40q0 -23 -16 -39.5t-40 -16.5q-25 0 -40.5 16.5t-15.5 39.5zM142 611q0 24 16.5 40t39.5 16q24 0 40 -16t16 -40q0 -23 -16 -39.5t-40 -16.5q-25 0 -40.5 16.5
t-15.5 39.5z" />
    <glyph glyph-name="Amacron" unicode="&#x100;" horiz-adv-x="705" 
d="M310 730h84l277 -730h-81l-71 185h-333l-70 -185h-82zM214 259h277l-139 366zM216 855h264v-67h-264v67z" />
    <glyph glyph-name="amacron" unicode="&#x101;" horiz-adv-x="632" 
d="M304 -10q-55 0 -102 20.5t-81 56t-53.5 82.5t-19.5 101t19 101t53 82.5t81 56t103 20.5q24 0 49.5 -6t50 -18t46.5 -29t38 -39v82h77v-500h-77v82q-16 -23 -38 -40t-46.5 -28.5t-50 -17.5t-49.5 -6zM308 60q40 0 74.5 15t59.5 40.5t39 60.5t14 74t-14 73.5t-39 60.5
t-59.5 41t-74.5 15q-38 0 -71.5 -15t-58 -40.5t-38.5 -60.5t-14 -74t14 -74t38.5 -60.5t58 -40.5t71.5 -15zM200 625h264v-67h-264v67z" />
    <glyph glyph-name="Abreve" unicode="&#x102;" horiz-adv-x="705" 
d="M310 730h84l277 -730h-81l-71 185h-333l-70 -185h-82zM214 259h277l-139 366zM346 784q-41 0 -71.5 13t-50.5 35t-29.5 52t-9.5 63h66q0 -48 24 -76t71 -29q45 1 69.5 29t24.5 76h68q0 -33 -11.5 -63t-32.5 -52t-51 -35t-67 -13z" />
    <glyph glyph-name="abreve" unicode="&#x103;" horiz-adv-x="632" 
d="M304 -10q-55 0 -102 20.5t-81 56t-53.5 82.5t-19.5 101t19 101t53 82.5t81 56t103 20.5q24 0 49.5 -6t50 -18t46.5 -29t38 -39v82h77v-500h-77v82q-16 -23 -38 -40t-46.5 -28.5t-50 -17.5t-49.5 -6zM308 60q40 0 74.5 15t59.5 40.5t39 60.5t14 74t-14 73.5t-39 60.5
t-59.5 41t-74.5 15q-38 0 -71.5 -15t-58 -40.5t-38.5 -60.5t-14 -74t14 -74t38.5 -60.5t58 -40.5t71.5 -15zM319 552q-41 0 -71.5 13t-50.5 35t-29.5 52t-9.5 63h66q0 -48 24 -76t71 -29q45 1 69.5 29t24.5 76h68q0 -33 -11.5 -63t-32.5 -52t-51 -35t-67 -13z" />
    <glyph glyph-name="Aogonek" unicode="&#x104;" horiz-adv-x="705" 
d="M603 -216q-30 0 -55 8t-42.5 21.5t-27.5 32t-10 39.5q0 34 24.5 66.5t89.5 67.5l-63 166h-333l-70 -185h-82l276 730h84l277 -730q-38 -23 -62 -39t-38 -28.5t-19.5 -22.5t-5.5 -21q0 -20 16.5 -30.5t40.5 -10.5q25 0 41.5 10t32.5 24l61 -42q-26 -23 -62 -39.5
t-73 -16.5zM214 259h277l-139 366z" />
    <glyph glyph-name="aogonek" unicode="&#x105;" horiz-adv-x="632" 
d="M304 -10q-55 0 -102 20.5t-81 56t-53.5 82.5t-19.5 101t19 101t53 82.5t81 56t103 20.5q24 0 49.5 -6t50 -18t46.5 -29t38 -39v82h77v-500q-41 -32 -60 -56.5t-19 -48.5q0 -20 13.5 -33t35.5 -13q21 0 35.5 7.5t28.5 18.5l44 -54q-23 -17 -51.5 -27.5t-56.5 -10.5
q-32 0 -55 9t-38 24.5t-22 35t-7 40.5q0 35 21 66.5t54 58.5v65q-16 -23 -38 -40t-46.5 -28.5t-50 -17.5t-49.5 -6zM308 60q40 0 74.5 15t59.5 40.5t39 60.5t14 74t-14 73.5t-39 60.5t-59.5 41t-74.5 15q-38 0 -71.5 -15t-58 -40.5t-38.5 -60.5t-14 -74t14 -74t38.5 -60.5
t58 -40.5t71.5 -15z" />
    <glyph glyph-name="Cacute" unicode="&#x106;" horiz-adv-x="787" 
d="M498 950h100l-145 -162h-72zM425 -10q-78 0 -146 29.5t-119 80.5t-80.5 119t-29.5 146t29.5 146t80.5 119t119 80.5t146 29.5q52 0 100 -13.5t90 -38.5t76.5 -59.5t58.5 -76.5l-67 -39q-38 68 -105.5 110.5t-152.5 42.5q-63 0 -117 -24t-93.5 -65t-62 -95.5t-22.5 -116.5
t22.5 -116.5t62 -95.5t93.5 -65t117 -24q96 0 163 45.5t103 118.5l69 -36q-24 -45 -57.5 -82t-76.5 -64t-93.5 -41.5t-107.5 -14.5z" />
    <glyph glyph-name="cacute" unicode="&#x107;" horiz-adv-x="587" 
d="M377 720h100l-145 -162h-72zM311 -10q-57 0 -105.5 20.5t-83.5 55.5t-54.5 82.5t-19.5 101.5q0 56 20.5 104t55.5 82.5t83 54t103 19.5q82 0 144 -41.5t90 -107.5l-70 -30q-23 52 -64.5 80.5t-100.5 28.5q-39 0 -72.5 -15t-58 -40.5t-38.5 -60.5t-14 -74t14 -74t39 -60.5
t59 -40.5t75 -15q63 0 103.5 33t61.5 83l71 -30q-30 -68 -89.5 -112t-148.5 -44z" />
    <glyph glyph-name="Ccircumflex" unicode="&#x108;" horiz-adv-x="787" 
d="M425 -10q-78 0 -146 29.5t-119 80.5t-80.5 119t-29.5 146t29.5 146t80.5 119t119 80.5t146 29.5q52 0 100 -13.5t90 -38.5t76.5 -59.5t58.5 -76.5l-67 -39q-38 68 -105.5 110.5t-152.5 42.5q-63 0 -117 -24t-93.5 -65t-62 -95.5t-22.5 -116.5t22.5 -116.5t62 -95.5
t93.5 -65t117 -24q96 0 163 45.5t103 118.5l69 -36q-24 -45 -57.5 -82t-76.5 -64t-93.5 -41.5t-107.5 -14.5zM391 950h66l119 -162h-80l-72 100l-71 -100h-81z" />
    <glyph glyph-name="ccircumflex" unicode="&#x109;" horiz-adv-x="587" 
d="M311 -10q-57 0 -105.5 20.5t-83.5 55.5t-54.5 82.5t-19.5 101.5q0 56 20.5 104t55.5 82.5t83 54t103 19.5q82 0 144 -41.5t90 -107.5l-70 -30q-23 52 -64.5 80.5t-100.5 28.5q-39 0 -72.5 -15t-58 -40.5t-38.5 -60.5t-14 -74t14 -74t39 -60.5t59 -40.5t75 -15
q63 0 103.5 33t61.5 83l71 -30q-30 -68 -89.5 -112t-148.5 -44zM274 720h66l119 -162h-80l-72 100l-71 -100h-81z" />
    <glyph glyph-name="Cdotaccent" unicode="&#x10a;" horiz-adv-x="787" 
d="M425 -10q-78 0 -146 29.5t-119 80.5t-80.5 119t-29.5 146t29.5 146t80.5 119t119 80.5t146 29.5q52 0 100 -13.5t90 -38.5t76.5 -59.5t58.5 -76.5l-67 -39q-38 68 -105.5 110.5t-152.5 42.5q-63 0 -117 -24t-93.5 -65t-62 -95.5t-22.5 -116.5t22.5 -116.5t62 -95.5
t93.5 -65t117 -24q96 0 163 45.5t103 118.5l69 -36q-24 -45 -57.5 -82t-76.5 -64t-93.5 -41.5t-107.5 -14.5zM371 856q0 26 17.5 43.5t43.5 17.5q27 0 44.5 -17.5t17.5 -43.5t-17.5 -44t-44.5 -18t-44 18t-17 44z" />
    <glyph glyph-name="cdotaccent" unicode="&#x10b;" horiz-adv-x="587" 
d="M311 -10q-57 0 -105.5 20.5t-83.5 55.5t-54.5 82.5t-19.5 101.5q0 56 20.5 104t55.5 82.5t83 54t103 19.5q82 0 144 -41.5t90 -107.5l-70 -30q-23 52 -64.5 80.5t-100.5 28.5q-39 0 -72.5 -15t-58 -40.5t-38.5 -60.5t-14 -74t14 -74t39 -60.5t59 -40.5t75 -15
q63 0 103.5 33t61.5 83l71 -30q-30 -68 -89.5 -112t-148.5 -44zM247 622q0 26 17.5 43.5t43.5 17.5q27 0 44.5 -17.5t17.5 -43.5t-17.5 -44t-44.5 -18t-44 18t-17 44z" />
    <glyph glyph-name="Ccaron" unicode="&#x10c;" horiz-adv-x="787" 
d="M425 -10q-78 0 -146 29.5t-119 80.5t-80.5 119t-29.5 146t29.5 146t80.5 119t119 80.5t146 29.5q52 0 100 -13.5t90 -38.5t76.5 -59.5t58.5 -76.5l-67 -39q-38 68 -105.5 110.5t-152.5 42.5q-63 0 -117 -24t-93.5 -65t-62 -95.5t-22.5 -116.5t22.5 -116.5t62 -95.5
t93.5 -65t117 -24q96 0 163 45.5t103 118.5l69 -36q-24 -45 -57.5 -82t-76.5 -64t-93.5 -41.5t-107.5 -14.5zM268 950h80l71 -100l72 100h80l-119 -162h-65z" />
    <glyph glyph-name="ccaron" unicode="&#x10d;" horiz-adv-x="587" 
d="M311 -10q-57 0 -105.5 20.5t-83.5 55.5t-54.5 82.5t-19.5 101.5q0 56 20.5 104t55.5 82.5t83 54t103 19.5q82 0 144 -41.5t90 -107.5l-70 -30q-23 52 -64.5 80.5t-100.5 28.5q-39 0 -72.5 -15t-58 -40.5t-38.5 -60.5t-14 -74t14 -74t39 -60.5t59 -40.5t75 -15
q63 0 103.5 33t61.5 83l71 -30q-30 -68 -89.5 -112t-148.5 -44zM153 720h80l71 -100l72 100h80l-119 -162h-65z" />
    <glyph glyph-name="Dcaron" unicode="&#x10e;" horiz-adv-x="706" 
d="M72 730h204q85 0 155 -28t120 -77t77.5 -115.5t27.5 -144.5t-28.5 -145t-79 -115.5t-119.5 -76.5t-150 -28h-207v730zM150 658v-585h123q66 0 122 22.5t96 61.5t62.5 92.5t22.5 115.5q0 63 -21.5 116.5t-61 92.5t-96.5 61.5t-127 22.5h-120zM144 950h80l71 -100l72 100
h80l-119 -162h-65z" />
    <glyph glyph-name="dcaron" unicode="&#x10f;" horiz-adv-x="668" 
d="M304 -10q-55 0 -102 20.5t-81 56t-53.5 82.5t-19.5 101t19 101t53 82.5t81 56t103 20.5q24 0 49.5 -6t50 -17.5t46 -28.5t37.5 -39v311h75v-730h-74v82q-16 -23 -38 -40t-46.5 -28.5t-50 -17.5t-49.5 -6zM308 60q40 0 74.5 15t59.5 40.5t39 60.5t14 74t-14 73.5t-39 60.5
t-59.5 41t-74.5 15q-38 0 -71.5 -15t-58 -40.5t-38.5 -60.5t-14 -74t14 -74t38.5 -60.5t58 -40.5t71.5 -15zM670 730h71l-59 -184h-53z" />
    <glyph glyph-name="Dcroat" unicode="&#x110;" horiz-adv-x="732" 
d="M23 402h77v328h202q85 0 155 -28t120 -77t77.5 -115.5t27.5 -144.5t-28.5 -145t-79 -115.5t-119.5 -76.5t-150 -28h-205v345h-77v57zM178 658v-256h202v-57h-202v-272h119q66 0 122.5 22.5t97.5 61.5t64 92.5t23 115.5q0 63 -22 116.5t-62.5 92.5t-98 61.5t-127.5 22.5
h-116z" />
    <glyph glyph-name="dcroat" unicode="&#x111;" horiz-adv-x="650" 
d="M415 644h72v86h75v-86h56v-53h-56v-591h-74v82q-16 -23 -38 -40t-46.5 -28.5t-50 -17.5t-49.5 -6q-55 0 -102 20.5t-81 56t-53.5 82.5t-19.5 101t19 101t53 82.5t81 56t103 20.5q24 0 49.5 -6t50 -17.5t46 -28.5t37.5 -39v172h-72v53zM308 60q40 0 74.5 15t59.5 40.5
t39 60.5t14 74t-14 73.5t-39 60.5t-59.5 41t-74.5 15q-38 0 -71.5 -15t-58 -40.5t-38.5 -60.5t-14 -74t14 -74t38.5 -60.5t58 -40.5t71.5 -15z" />
    <glyph glyph-name="Emacron" unicode="&#x112;" horiz-adv-x="575" 
d="M72 730h443v-74h-365v-253h365v-74h-365v-254h365v-75h-443v730zM156 855h264v-67h-264v67z" />
    <glyph glyph-name="emacron" unicode="&#x113;" horiz-adv-x="612" 
d="M311 -10q-60 0 -108.5 19.5t-83 53.5t-53 81t-18.5 102q0 56 19.5 104.5t54 84t82 55.5t103.5 20q54 0 100.5 -18t81 -51t54.5 -79.5t20 -103.5v-33h-440q4 -37 19.5 -67.5t40.5 -52.5t57.5 -34t70.5 -12q61 0 103.5 28.5t65.5 74.5l67 -33q-35 -66 -93 -102.5
t-143 -36.5zM307 441q-34 0 -63.5 -11t-53 -30t-40 -46t-23.5 -58h357q-11 68 -57.5 106.5t-119.5 38.5zM179 625h264v-67h-264v67z" />
    <glyph glyph-name="Ebreve" unicode="&#x114;" horiz-adv-x="575" 
d="M72 730h443v-74h-365v-253h365v-74h-365v-254h365v-75h-443v730zM291 784q-41 0 -71.5 13t-50.5 35t-29.5 52t-9.5 63h66q0 -48 24 -76t71 -29q45 1 69.5 29t24.5 76h68q0 -33 -11.5 -63t-32.5 -52t-51 -35t-67 -13z" />
    <glyph glyph-name="ebreve" unicode="&#x115;" horiz-adv-x="612" 
d="M311 -10q-60 0 -108.5 19.5t-83 53.5t-53 81t-18.5 102q0 56 19.5 104.5t54 84t82 55.5t103.5 20q54 0 100.5 -18t81 -51t54.5 -79.5t20 -103.5v-33h-440q4 -37 19.5 -67.5t40.5 -52.5t57.5 -34t70.5 -12q61 0 103.5 28.5t65.5 74.5l67 -33q-35 -66 -93 -102.5
t-143 -36.5zM307 441q-34 0 -63.5 -11t-53 -30t-40 -46t-23.5 -58h357q-11 68 -57.5 106.5t-119.5 38.5zM310 552q-41 0 -71.5 13t-50.5 35t-29.5 52t-9.5 63h66q0 -48 24 -76t71 -29q45 1 69.5 29t24.5 76h68q0 -33 -11.5 -63t-32.5 -52t-51 -35t-67 -13z" />
    <glyph glyph-name="Edotaccent" unicode="&#x116;" horiz-adv-x="575" 
d="M72 730h443v-74h-365v-253h365v-74h-365v-254h365v-75h-443v730zM241 847q0 26 17.5 43.5t43.5 17.5q27 0 44.5 -17.5t17.5 -43.5t-17.5 -44t-44.5 -18t-44 18t-17 44z" />
    <glyph glyph-name="edotaccent" unicode="&#x117;" horiz-adv-x="612" 
d="M311 -10q-60 0 -108.5 19.5t-83 53.5t-53 81t-18.5 102q0 56 19.5 104.5t54 84t82 55.5t103.5 20q54 0 100.5 -18t81 -51t54.5 -79.5t20 -103.5v-33h-440q4 -37 19.5 -67.5t40.5 -52.5t57.5 -34t70.5 -12q61 0 103.5 28.5t65.5 74.5l67 -33q-35 -66 -93 -102.5
t-143 -36.5zM307 441q-34 0 -63.5 -11t-53 -30t-40 -46t-23.5 -58h357q-11 68 -57.5 106.5t-119.5 38.5zM252 622q0 26 17.5 43.5t43.5 17.5q27 0 44.5 -17.5t17.5 -43.5t-17.5 -44t-44.5 -18t-44 18t-17 44z" />
    <glyph glyph-name="Eogonek" unicode="&#x118;" horiz-adv-x="575" 
d="M72 730h443v-74h-365v-253h365v-74h-365v-254h365v-75q-38 -23 -62 -39t-38 -28.5t-19.5 -22.5t-5.5 -21q0 -20 16.5 -30.5t40.5 -10.5q25 0 41.5 10t32.5 24l61 -42q-26 -23 -62 -39.5t-73 -16.5q-30 0 -55 8t-42.5 21.5t-27.5 32t-10 39.5q0 29 17.5 57.5t63.5 57.5
h-321v730z" />
    <glyph glyph-name="eogonek" unicode="&#x119;" horiz-adv-x="612" 
d="M348 -207q-30 0 -55 8t-42.5 21.5t-27.5 32t-10 39.5q0 26 12.5 50t44.5 49q-51 6 -92 27.5t-70 55t-44.5 77t-15.5 93.5q0 56 19.5 104.5t54 84t82 55.5t103.5 20q54 0 100.5 -18t81 -51t54.5 -79.5t20 -103.5v-33h-440q4 -37 19.5 -67.5t40.5 -52.5t57.5 -34t70.5 -12
q61 0 103.5 28.5t65.5 74.5l67 -33q-23 -44 -56 -74.5t-78 -47.5q-37 -22 -61 -38t-37.5 -28t-18.5 -22t-5 -21q0 -20 16.5 -30.5t40.5 -10.5q25 0 41.5 10t32.5 24l61 -42q-26 -23 -62 -39.5t-73 -16.5zM307 441q-34 0 -63.5 -11t-53 -30t-40 -46t-23.5 -58h357
q-11 68 -57.5 106.5t-119.5 38.5z" />
    <glyph glyph-name="Ecaron" unicode="&#x11a;" horiz-adv-x="576" 
d="M72 730h443v-74h-365v-253h365v-74h-365v-254h365v-75h-443v730zM135 950h80l71 -100l72 100h80l-119 -162h-65z" />
    <glyph glyph-name="ecaron" unicode="&#x11b;" horiz-adv-x="612" 
d="M311 -10q-60 0 -108.5 19.5t-83 53.5t-53 81t-18.5 102q0 56 19.5 104.5t54 84t82 55.5t103.5 20q54 0 100.5 -18t81 -51t54.5 -79.5t20 -103.5v-33h-440q4 -37 19.5 -67.5t40.5 -52.5t57.5 -34t70.5 -12q61 0 103.5 28.5t65.5 74.5l67 -33q-35 -66 -93 -102.5
t-143 -36.5zM307 441q-34 0 -63.5 -11t-53 -30t-40 -46t-23.5 -58h357q-11 68 -57.5 106.5t-119.5 38.5zM160 720h80l71 -100l72 100h80l-119 -162h-65z" />
    <glyph glyph-name="Gcircumflex" unicode="&#x11c;" horiz-adv-x="845" 
d="M428 -10q-80 0 -149 29.5t-120 80.5t-80 119t-29 146t28.5 146t79.5 119t121 80.5t153 29.5q53 0 101 -13.5t89.5 -38.5t75.5 -60t58 -78l-68 -39q-37 70 -103 112.5t-153 42.5q-69 0 -124.5 -24t-95 -65t-61 -95.5t-21.5 -116.5t22 -116.5t62 -95.5t94.5 -65t119.5 -24
q64 0 114.5 19t86.5 53t57.5 80t28.5 99h-293v74h374v-22q0 -75 -24 -143.5t-71 -120.5t-115.5 -82.5t-157.5 -30.5zM388 950h66l119 -162h-80l-72 100l-71 -100h-81z" />
    <glyph glyph-name="gcircumflex" unicode="&#x11d;" horiz-adv-x="633" 
d="M304 -10q-55 0 -102 20.5t-81 56t-53.5 82.5t-19.5 101t19 101t53 82.5t81 56t103 20.5q24 0 49.5 -6t50 -18t46.5 -29t38 -39v82h77v-491q0 -57 -17.5 -103.5t-49.5 -80t-77.5 -51.5t-102.5 -18q-92 0 -150 37.5t-85 100.5l76 25q18 -43 56.5 -69t102.5 -26
q41 0 73 13.5t53.5 38t33 58t11.5 73.5v76q-16 -23 -37.5 -40t-46.5 -29t-51 -18t-50 -6zM308 60q40 0 74.5 15t59.5 40.5t39 60.5t14 74t-14 73.5t-39 60.5t-59.5 41t-74.5 15q-38 0 -71.5 -15t-58 -40.5t-38.5 -60.5t-14 -74t14 -74t38.5 -60.5t58 -40.5t71.5 -15z
M282 720h66l119 -162h-80l-72 100l-71 -100h-81z" />
    <glyph glyph-name="Gbreve" unicode="&#x11e;" horiz-adv-x="845" 
d="M428 -10q-80 0 -149 29.5t-120 80.5t-80 119t-29 146t28.5 146t79.5 119t121 80.5t153 29.5q53 0 101 -13.5t89.5 -38.5t75.5 -60t58 -78l-68 -39q-37 70 -103 112.5t-153 42.5q-69 0 -124.5 -24t-95 -65t-61 -95.5t-21.5 -116.5t22 -116.5t62 -95.5t94.5 -65t119.5 -24
q64 0 114.5 19t86.5 53t57.5 80t28.5 99h-293v74h374v-22q0 -75 -24 -143.5t-71 -120.5t-115.5 -82.5t-157.5 -30.5zM420 784q-41 0 -71.5 13t-50.5 35t-29.5 52t-9.5 63h66q0 -48 24 -76t71 -29q45 1 69.5 29t24.5 76h68q0 -33 -11.5 -63t-32.5 -52t-51 -35t-67 -13z" />
    <glyph glyph-name="gbreve" unicode="&#x11f;" horiz-adv-x="633" 
d="M304 -10q-55 0 -102 20.5t-81 56t-53.5 82.5t-19.5 101t19 101t53 82.5t81 56t103 20.5q24 0 49.5 -6t50 -18t46.5 -29t38 -39v82h77v-491q0 -57 -17.5 -103.5t-49.5 -80t-77.5 -51.5t-102.5 -18q-92 0 -150 37.5t-85 100.5l76 25q18 -43 56.5 -69t102.5 -26
q41 0 73 13.5t53.5 38t33 58t11.5 73.5v76q-16 -23 -37.5 -40t-46.5 -29t-51 -18t-50 -6zM308 60q40 0 74.5 15t59.5 40.5t39 60.5t14 74t-14 73.5t-39 60.5t-59.5 41t-74.5 15q-38 0 -71.5 -15t-58 -40.5t-38.5 -60.5t-14 -74t14 -74t38.5 -60.5t58 -40.5t71.5 -15z
M315 552q-41 0 -71.5 13t-50.5 35t-29.5 52t-9.5 63h66q0 -48 24 -76t71 -29q45 1 69.5 29t24.5 76h68q0 -33 -11.5 -63t-32.5 -52t-51 -35t-67 -13z" />
    <glyph glyph-name="Gdotaccent" unicode="&#x120;" horiz-adv-x="845" 
d="M428 -10q-80 0 -149 29.5t-120 80.5t-80 119t-29 146t28.5 146t79.5 119t121 80.5t153 29.5q53 0 101 -13.5t89.5 -38.5t75.5 -60t58 -78l-68 -39q-37 70 -103 112.5t-153 42.5q-69 0 -124.5 -24t-95 -65t-61 -95.5t-21.5 -116.5t22 -116.5t62 -95.5t94.5 -65t119.5 -24
q64 0 114.5 19t86.5 53t57.5 80t28.5 99h-293v74h374v-22q0 -75 -24 -143.5t-71 -120.5t-115.5 -82.5t-157.5 -30.5zM365 856q0 26 17.5 43.5t43.5 17.5q27 0 44.5 -17.5t17.5 -43.5t-17.5 -44t-44.5 -18t-44 18t-17 44z" />
    <glyph glyph-name="gdotaccent" unicode="&#x121;" horiz-adv-x="633" 
d="M304 -10q-55 0 -102 20.5t-81 56t-53.5 82.5t-19.5 101t19 101t53 82.5t81 56t103 20.5q24 0 49.5 -6t50 -18t46.5 -29t38 -39v82h77v-491q0 -57 -17.5 -103.5t-49.5 -80t-77.5 -51.5t-102.5 -18q-92 0 -150 37.5t-85 100.5l76 25q18 -43 56.5 -69t102.5 -26
q41 0 73 13.5t53.5 38t33 58t11.5 73.5v76q-16 -23 -37.5 -40t-46.5 -29t-51 -18t-50 -6zM308 60q40 0 74.5 15t59.5 40.5t39 60.5t14 74t-14 73.5t-39 60.5t-59.5 41t-74.5 15q-38 0 -71.5 -15t-58 -40.5t-38.5 -60.5t-14 -74t14 -74t38.5 -60.5t58 -40.5t71.5 -15z
M243 622q0 26 17.5 43.5t43.5 17.5q27 0 44.5 -17.5t17.5 -43.5t-17.5 -44t-44.5 -18t-44 18t-17 44z" />
    <glyph glyph-name="Gcommaaccent" unicode="&#x122;" horiz-adv-x="845" 
d="M428 -10q-80 0 -149 29.5t-120 80.5t-80 119t-29 146t28.5 146t79.5 119t121 80.5t153 29.5q53 0 101 -13.5t89.5 -38.5t75.5 -60t58 -78l-68 -39q-37 70 -103 112.5t-153 42.5q-69 0 -124.5 -24t-95 -65t-61 -95.5t-21.5 -116.5t22 -116.5t62 -95.5t94.5 -65t119.5 -24
q64 0 114.5 19t86.5 53t57.5 80t28.5 99h-293v74h374v-22q0 -75 -24 -143.5t-71 -120.5t-115.5 -82.5t-157.5 -30.5zM356 -264l41 204h71l-59 -204h-53z" />
    <glyph glyph-name="gcommaaccent" unicode="&#x123;" horiz-adv-x="633" 
d="M304 -10q-55 0 -102 20.5t-81 56t-53.5 82.5t-19.5 101t19 101t53 82.5t81 56t103 20.5q24 0 49.5 -6t50 -18t46.5 -29t38 -39v82h77v-491q0 -57 -17.5 -103.5t-49.5 -80t-77.5 -51.5t-102.5 -18q-92 0 -150 37.5t-85 100.5l76 25q18 -43 56.5 -69t102.5 -26
q41 0 73 13.5t53.5 38t33 58t11.5 73.5v76q-16 -23 -37.5 -40t-46.5 -29t-51 -18t-50 -6zM308 60q40 0 74.5 15t59.5 40.5t39 60.5t14 74t-14 73.5t-39 60.5t-59.5 41t-74.5 15q-38 0 -71.5 -15t-58 -40.5t-38.5 -60.5t-14 -74t14 -74t38.5 -60.5t58 -40.5t71.5 -15z
M281 550l41 204h71l-59 -204h-53z" />
    <glyph glyph-name="Hcircumflex" unicode="&#x124;" horiz-adv-x="685" 
d="M535 330h-385v-330h-78v730h78v-325h385v325h78v-730h-78v330zM308 950h66l119 -162h-80l-72 100l-71 -100h-81z" />
    <glyph glyph-name="hcircumflex" unicode="&#x125;" horiz-adv-x="597" 
d="M68 730h76v-303q26 38 69.5 60.5t100.5 22.5q101 0 159 -61.5t58 -170.5v-278h-78v278q0 73 -37.5 117.5t-112.5 44.5q-34 0 -63 -12.5t-50 -34.5t-33 -52t-12 -64v-277h-77v730zM71 940h66l119 -162h-80l-72 100l-71 -100h-81z" />
    <glyph glyph-name="Hbar" unicode="&#x126;" horiz-adv-x="725" 
d="M22 597h68v133h78v-133h385v133h78v-133h64v-56h-64v-541h-78v330h-385v-330h-78v541h-68v56zM168 405h385v136h-385v-136z" />
    <glyph glyph-name="hbar" unicode="&#x127;" horiz-adv-x="617" 
d="M21 626h67v104h76v-104h74v-52h-74v-147q26 38 69.5 60.5t100.5 22.5q101 0 159 -61.5t58 -170.5v-278h-78v278q0 73 -37.5 117.5t-112.5 44.5q-34 0 -63 -12.5t-50 -34.5t-33 -52t-12 -64v-277h-77v574h-67v52z" />
    <glyph glyph-name="Itilde" unicode="&#x128;" horiz-adv-x="240" 
d="M81 730h78v-730h-78v730zM-46 788q0 55 27.5 87.5t71.5 32.5q25 0 44 -8t37 -19q17 -11 32 -19.5t31 -8.5q18 0 28.5 13t10.5 39h62q0 -56 -25.5 -88.5t-74.5 -32.5q-29 0 -50.5 11t-40.5 22q-14 8 -26 15t-28 7q-37 0 -37 -51h-62z" />
    <glyph glyph-name="itilde" unicode="&#x129;" horiz-adv-x="212" 
d="M145 500v-500h-78v500h78zM-66 558q0 55 27.5 87.5t71.5 32.5q25 0 44 -8t37 -19q17 -11 32 -19.5t31 -8.5q18 0 28.5 13t10.5 39h62q0 -56 -25.5 -88.5t-74.5 -32.5q-29 0 -50.5 11t-40.5 22q-14 8 -26 15t-28 7q-37 0 -37 -51h-62z" />
    <glyph glyph-name="Imacron" unicode="&#x12a;" horiz-adv-x="240" 
d="M81 730h78v-730h-78v730zM-14 855h264v-67h-264v67z" />
    <glyph glyph-name="imacron" unicode="&#x12b;" horiz-adv-x="212" 
d="M145 500v-500h-78v500h78zM-27 625h264v-67h-264v67z" />
    <glyph glyph-name="Ibreve" unicode="&#x12c;" horiz-adv-x="240" 
d="M81 730h78v-730h-78v730zM116 784q-41 0 -71.5 13t-50.5 35t-29.5 52t-9.5 63h66q0 -48 24 -76t71 -29q45 1 69.5 29t24.5 76h68q0 -33 -11.5 -63t-32.5 -52t-51 -35t-67 -13z" />
    <glyph glyph-name="ibreve" unicode="&#x12d;" horiz-adv-x="212" 
d="M145 500v-500h-78v500h78zM106 552q-41 0 -71.5 13t-50.5 35t-29.5 52t-9.5 63h66q0 -48 24 -76t71 -29q45 1 69.5 29t24.5 76h68q0 -33 -11.5 -63t-32.5 -52t-51 -35t-67 -13z" />
    <glyph glyph-name="Iogonek" unicode="&#x12e;" horiz-adv-x="240" 
d="M129 -217q-32 0 -55 9t-38 24.5t-22 35t-7 40.5q0 34 20.5 65.5t53.5 58.5v714h78v-730q-41 -32 -60 -56.5t-19 -48.5q0 -20 13.5 -33t35.5 -13q21 0 35.5 7.5t28.5 18.5l44 -54q-23 -17 -51.5 -27.5t-56.5 -10.5z" />
    <glyph glyph-name="iogonek" unicode="&#x12f;" horiz-adv-x="212" 
d="M115 -217q-32 0 -55 9t-38 24.5t-22 35t-7 40.5q0 34 20.5 65.5t53.5 58.5v484h78v-500q-41 -32 -60 -56.5t-19 -48.5q0 -20 13.5 -33t35.5 -13q21 0 35.5 7.5t28.5 18.5l44 -54q-23 -17 -51.5 -27.5t-56.5 -10.5zM45 665q0 26 17.5 43.5t43.5 17.5q27 0 44.5 -17.5
t17.5 -43.5t-17.5 -44t-44.5 -18t-44 18t-17 44z" />
    <glyph glyph-name="Idotaccent" unicode="&#x130;" horiz-adv-x="240" 
d="M81 730h78v-730h-78v730zM58 847q0 26 17.5 43.5t43.5 17.5q27 0 44.5 -17.5t17.5 -43.5t-17.5 -44t-44.5 -18t-44 18t-17 44z" />
    <glyph glyph-name="dotlessi" unicode="&#x131;" horiz-adv-x="212" 
d="M145 500v-500h-78v500h78z" />
    <glyph glyph-name="IJ" unicode="&#x132;" horiz-adv-x="577" 
d="M235 73h94q54 0 81 30.5t27 96.5v530h78v-531q0 -97 -44 -148t-138 -51h-98v73zM62 730h78v-730h-78v730z" />
    <glyph glyph-name="ij" unicode="&#x133;" horiz-adv-x="384" 
d="M67 -155h52q37 0 60.5 4t37 16.5t18 36t4.5 61.5v537h78v-538q0 -55 -9.5 -91.5t-31 -58.5t-57.5 -31.5t-88 -9.5h-64v74zM67 500h78v-500h-78v500zM45 665q0 26 17.5 43.5t43.5 17.5q27 0 44.5 -17.5t17.5 -43.5t-17.5 -44t-44.5 -18t-44 18t-17 44zM217 665
q0 26 17.5 43.5t43.5 17.5q27 0 44.5 -17.5t17.5 -43.5t-17.5 -44t-44.5 -18t-44 18t-17 44z" />
    <glyph glyph-name="Jcircumflex" unicode="&#x134;" horiz-adv-x="469" 
d="M217 -10q-65 0 -112.5 29t-71.5 74l70 46q17 -33 44 -55.5t68 -22.5q50 0 79 33.5t29 95.5v540h78v-538q0 -97 -49.5 -149.5t-134.5 -52.5zM327 950h66l119 -162h-80l-72 100l-71 -100h-81z" />
    <glyph glyph-name="jcircumflex" unicode="&#x135;" horiz-adv-x="213" 
d="M-53 -155q37 0 60.5 4t37 16.5t18 36t4.5 61.5v537h79v-538q0 -56 -9 -93t-31 -58.5t-57.5 -30.5t-89.5 -9h-12v74zM71 720h66l119 -162h-80l-72 100l-71 -100h-81z" />
    <glyph glyph-name="Kcommaaccent" unicode="&#x136;" horiz-adv-x="646" 
d="M287 385l-137 -161v-224h-78v730h78v-402l345 402h96l-249 -292l281 -438h-90zM259 -264l41 204h71l-59 -204h-53z" />
    <glyph glyph-name="kcommaaccent" unicode="&#x137;" horiz-adv-x="536" 
d="M245 242l-101 -103v-139h-76v730h76v-502l266 272h98l-207 -212l208 -288h-90zM199 -254l41 204h71l-59 -204h-53z" />
    <glyph glyph-name="kgreenlandic" unicode="&#x138;" horiz-adv-x="536" 
d="M245 242l-101 -103v-139h-76v500h76v-272l266 272h98l-207 -212l208 -288h-90z" />
    <glyph glyph-name="Lacute" unicode="&#x139;" horiz-adv-x="533" 
d="M72 730h78v-655h326v-75h-404v730zM184 950h100l-145 -162h-72z" />
    <glyph glyph-name="lacute" unicode="&#x13a;" horiz-adv-x="214" 
d="M68 730h78v-730h-78v730zM187 940h100l-145 -162h-72z" />
    <glyph glyph-name="Lcommaaccent" unicode="&#x13b;" horiz-adv-x="533" 
d="M72 730h78v-655h326v-75h-404v730zM195 -264l41 204h71l-59 -204h-53z" />
    <glyph glyph-name="lcommaaccent" unicode="&#x13c;" horiz-adv-x="214" 
d="M68 730h78v-730h-78v730zM36 -254l41 204h71l-59 -204h-53z" />
    <glyph glyph-name="Lcaron" unicode="&#x13d;" horiz-adv-x="533" 
d="M72 730h78v-655h326v-75h-404v730zM333 730h71l-59 -184h-53z" />
    <glyph glyph-name="lcaron" unicode="&#x13e;" horiz-adv-x="246" 
d="M62 730h78v-730h-78v730zM248 730h71l-59 -184h-53z" />
    <glyph glyph-name="Ldot" unicode="&#x13f;" horiz-adv-x="537" 
d="M72 730h78v-655h326v-75h-404v730zM376 342q0 26 17.5 43.5t43.5 17.5q27 0 44.5 -17.5t17.5 -43.5t-17.5 -44t-44.5 -18t-44 18t-17 44z" />
    <glyph glyph-name="ldot" unicode="&#x140;" horiz-adv-x="360" 
d="M68 730h78v-730h-78v730zM221 254q0 26 17.5 43.5t43.5 17.5q27 0 44.5 -17.5t17.5 -43.5t-17.5 -44t-44.5 -18t-44 18t-17 44z" />
    <glyph glyph-name="Lslash" unicode="&#x141;" horiz-adv-x="561" 
d="M11 404l89 26v300h78v-278l91 27l15 -53l-106 -31v-320h326v-75h-404v372l-74 -21z" />
    <glyph glyph-name="lslash" unicode="&#x142;" horiz-adv-x="283" 
d="M6 364l96 30v336h79v-311l80 25l21 -51l-101 -32v-361h-79v337l-75 -23z" />
    <glyph glyph-name="Nacute" unicode="&#x143;" horiz-adv-x="739" 
d="M72 730h87l430 -606v606h78v-730h-83l-434 611v-611h-78v730zM452 950h100l-145 -162h-72z" />
    <glyph glyph-name="nacute" unicode="&#x144;" horiz-adv-x="595" 
d="M67 500h76v-74q26 38 69.5 61t100.5 23q101 0 159 -61.5t58 -170.5v-278h-78v278q0 73 -37.5 117.5t-112.5 44.5q-34 0 -63 -12.5t-50 -34.5t-33 -52t-12 -64v-277h-77v500zM373 720h100l-145 -162h-72z" />
    <glyph glyph-name="Ncommaaccent" unicode="&#x145;" horiz-adv-x="739" 
d="M72 730h87l430 -606v606h78v-730h-83l-434 611v-611h-78v730zM289 -264l41 204h71l-59 -204h-53z" />
    <glyph glyph-name="ncommaaccent" unicode="&#x146;" horiz-adv-x="595" 
d="M67 500h76v-74q26 38 69.5 61t100.5 23q101 0 159 -61.5t58 -170.5v-278h-78v278q0 73 -37.5 117.5t-112.5 44.5q-34 0 -63 -12.5t-50 -34.5t-33 -52t-12 -64v-277h-77v500zM233 -254l41 204h71l-59 -204h-53z" />
    <glyph glyph-name="Ncaron" unicode="&#x147;" horiz-adv-x="739" 
d="M72 730h87l430 -606v606h78v-730h-83l-434 611v-611h-78v730zM218 950h80l71 -100l72 100h80l-119 -162h-65z" />
    <glyph glyph-name="ncaron" unicode="&#x148;" horiz-adv-x="595" 
d="M67 500h76v-74q26 38 69.5 61t100.5 23q101 0 159 -61.5t58 -170.5v-278h-78v278q0 73 -37.5 117.5t-112.5 44.5q-34 0 -63 -12.5t-50 -34.5t-33 -52t-12 -64v-277h-77v500zM142 720h80l71 -100l72 100h80l-119 -162h-65z" />
    <glyph glyph-name="Eng" unicode="&#x14a;" horiz-adv-x="739" 
d="M460 -144h21q63 0 85.5 28.5t22.5 96.5v19l-439 611v-611h-78v730h87l430 -599v599h78v-750q0 -48 -9.5 -85t-30.5 -62.5t-55 -38.5t-84 -13h-28v75z" />
    <glyph glyph-name="eng" unicode="&#x14b;" horiz-adv-x="595" 
d="M331 -155q37 0 61 4t37 16.5t18 36t5 61.5v315q0 73 -37.5 117.5t-112.5 44.5q-34 0 -63 -12.5t-50 -34.5t-33 -52t-12 -64v-277h-77v500h76v-74q26 38 69.5 61t100.5 23q101 0 159 -61.5t58 -170.5v-316q0 -56 -9 -93t-31 -58.5t-57.5 -30.5t-89.5 -9h-12v74z" />
    <glyph glyph-name="Omacron" unicode="&#x14c;" horiz-adv-x="850" 
d="M289 855h264v-67h-264v67zM425 -10q-78 0 -146 29.5t-119 80.5t-80.5 119t-29.5 146t29.5 146t80.5 119t119 80.5t146 29.5t146 -29.5t119 -80.5t80.5 -119t29.5 -146t-29.5 -146t-80.5 -119t-119 -80.5t-146 -29.5zM425 64q63 0 117 24t93.5 65t62 95.5t22.5 116.5
t-22.5 116.5t-62 95.5t-93.5 65t-117 24t-117 -24t-93.5 -65t-62 -95.5t-22.5 -116.5t22.5 -116.5t62 -95.5t93.5 -65t117 -24z" />
    <glyph glyph-name="omacron" unicode="&#x14d;" horiz-adv-x="615" 
d="M177 625h264v-67h-264v67zM307 -10q-54 0 -101 20t-82.5 55t-55.5 82.5t-20 102.5t20 102.5t55.5 82.5t82.5 55t101 20t101.5 -20t82.5 -55t55.5 -82.5t20.5 -102.5t-20.5 -102.5t-55.5 -82.5t-82.5 -55t-101.5 -20zM307 60q38 0 71.5 15t58 40.5t38.5 60.5t14 74t-14 74
t-38.5 60.5t-58 40.5t-71.5 15t-71 -15t-57.5 -40.5t-38.5 -60.5t-14 -74t14 -74t38.5 -60.5t57.5 -40.5t71 -15z" />
    <glyph glyph-name="Obreve" unicode="&#x14e;" horiz-adv-x="850" 
d="M425 -10q-78 0 -146 29.5t-119 80.5t-80.5 119t-29.5 146t29.5 146t80.5 119t119 80.5t146 29.5t146 -29.5t119 -80.5t80.5 -119t29.5 -146t-29.5 -146t-80.5 -119t-119 -80.5t-146 -29.5zM425 64q63 0 117 24t93.5 65t62 95.5t22.5 116.5t-22.5 116.5t-62 95.5t-93.5 65
t-117 24t-117 -24t-93.5 -65t-62 -95.5t-22.5 -116.5t22.5 -116.5t62 -95.5t93.5 -65t117 -24zM420 785q-41 0 -71.5 13t-50.5 35t-29.5 52t-9.5 63h66q0 -48 24 -76t71 -29q45 1 69.5 29t24.5 76h68q0 -33 -11.5 -63t-32.5 -52t-51 -35t-67 -13z" />
    <glyph glyph-name="obreve" unicode="&#x14f;" horiz-adv-x="615" 
d="M307 -10q-54 0 -101 20t-82.5 55t-55.5 82.5t-20 102.5t20 102.5t55.5 82.5t82.5 55t101 20t101.5 -20t82.5 -55t55.5 -82.5t20.5 -102.5t-20.5 -102.5t-55.5 -82.5t-82.5 -55t-101.5 -20zM307 60q38 0 71.5 15t58 40.5t38.5 60.5t14 74t-14 74t-38.5 60.5t-58 40.5
t-71.5 15t-71 -15t-57.5 -40.5t-38.5 -60.5t-14 -74t14 -74t38.5 -60.5t57.5 -40.5t71 -15zM308 552q-41 0 -71.5 13t-50.5 35t-29.5 52t-9.5 63h66q0 -48 24 -76t71 -29q45 1 69.5 29t24.5 76h68q0 -33 -11.5 -63t-32.5 -52t-51 -35t-67 -13z" />
    <glyph glyph-name="Ohungarumlaut" unicode="&#x150;" horiz-adv-x="850" 
d="M423 950h94l-145 -162h-66zM566 950h94l-145 -162h-67zM425 -10q-78 0 -146 29.5t-119 80.5t-80.5 119t-29.5 146t29.5 146t80.5 119t119 80.5t146 29.5t146 -29.5t119 -80.5t80.5 -119t29.5 -146t-29.5 -146t-80.5 -119t-119 -80.5t-146 -29.5zM425 64q63 0 117 24
t93.5 65t62 95.5t22.5 116.5t-22.5 116.5t-62 95.5t-93.5 65t-117 24t-117 -24t-93.5 -65t-62 -95.5t-22.5 -116.5t22.5 -116.5t62 -95.5t93.5 -65t117 -24z" />
    <glyph glyph-name="ohungarumlaut" unicode="&#x151;" horiz-adv-x="615" 
d="M318 720h94l-145 -162h-66zM461 720h94l-145 -162h-67zM307 -10q-54 0 -101 20t-82.5 55t-55.5 82.5t-20 102.5t20 102.5t55.5 82.5t82.5 55t101 20t101.5 -20t82.5 -55t55.5 -82.5t20.5 -102.5t-20.5 -102.5t-55.5 -82.5t-82.5 -55t-101.5 -20zM307 60q38 0 71.5 15
t58 40.5t38.5 60.5t14 74t-14 74t-38.5 60.5t-58 40.5t-71.5 15t-71 -15t-57.5 -40.5t-38.5 -60.5t-14 -74t14 -74t38.5 -60.5t57.5 -40.5t71 -15z" />
    <glyph glyph-name="OE" unicode="&#x152;" horiz-adv-x="1224" 
d="M721 145q-48 -71 -124.5 -113t-172.5 -42q-78 0 -146 29.5t-118.5 80.5t-80 119t-29.5 146t29.5 146t80 119t118.5 80.5t146 29.5q96 0 172.5 -42t124.5 -113v145h443v-74h-365v-253h365v-74h-365v-254h365v-75h-443v145zM424 67q60 0 113 22.5t93 61t64 90.5t27 112v24
q-3 60 -27 112.5t-64 91t-93 61t-113 22.5q-62 0 -115.5 -23.5t-94 -64t-63.5 -95t-23 -116.5t23 -116t63.5 -94.5t94 -64t115.5 -23.5z" />
    <glyph glyph-name="oe" unicode="&#x153;" horiz-adv-x="1057" 
d="M307 -10q-54 0 -101 20t-82.5 55t-55.5 82.5t-20 102.5t20 102.5t55.5 82.5t82.5 55t101 20q71 0 129.5 -33.5t92.5 -89.5q33 57 91 90t131 33q54 0 100.5 -18.5t81 -52t54.5 -80.5t20 -104v-32h-440q4 -37 20 -67t40.5 -51.5t57 -33.5t70.5 -12q59 0 99 25t65 68l65 -38
q-38 -59 -94.5 -91.5t-134.5 -32.5t-137 32t-91 88q-35 -55 -93 -87.5t-127 -32.5zM307 60q38 0 71.5 15t58 40.5t38.5 60.5t14 74t-14 74t-38.5 60.5t-58 40.5t-71.5 15t-71 -15t-57.5 -40.5t-38.5 -60.5t-14 -74t14 -74t38.5 -60.5t57.5 -40.5t71 -15zM751 441
q-34 0 -64 -11t-53 -30.5t-39.5 -46.5t-23.5 -59h357q-10 69 -56.5 108t-120.5 39z" />
    <glyph glyph-name="Racute" unicode="&#x154;" horiz-adv-x="634" 
d="M72 730h264q54 0 99.5 -18t78.5 -49.5t51.5 -74t18.5 -90.5q0 -36 -11 -70t-31.5 -62.5t-50.5 -50.5t-67 -34l166 -281h-91l-153 264h-196v-264h-78v730zM150 658v-324h179q41 0 74 14t56 37t35 52.5t12 60.5q0 34 -12 63.5t-35 51t-55.5 33.5t-73.5 12h-180zM340 950
h100l-145 -162h-72z" />
    <glyph glyph-name="racute" unicode="&#x155;" horiz-adv-x="389" 
d="M67 500h77v-78q23 38 62 58t93 20h46v-72h-49q-81 0 -116 -40.5t-35 -128.5v-259h-78v500zM291 720h100l-145 -162h-72z" />
    <glyph glyph-name="Rcommaaccent" unicode="&#x156;" horiz-adv-x="634" 
d="M72 730h264q54 0 99.5 -18t78.5 -49.5t51.5 -74t18.5 -90.5q0 -36 -11 -70t-31.5 -62.5t-50.5 -50.5t-67 -34l166 -281h-91l-153 264h-196v-264h-78v730zM150 658v-324h179q41 0 74 14t56 37t35 52.5t12 60.5q0 34 -12 63.5t-35 51t-55.5 33.5t-73.5 12h-180zM239 -281
l41 204h71l-59 -204h-53z" />
    <glyph glyph-name="rcommaaccent" unicode="&#x157;" horiz-adv-x="389" 
d="M67 500h77v-78q23 38 62 58t93 20h46v-72h-49q-81 0 -116 -40.5t-35 -128.5v-259h-78v500zM34 -254l41 204h71l-59 -204h-53z" />
    <glyph glyph-name="Rcaron" unicode="&#x158;" horiz-adv-x="634" 
d="M72 730h264q54 0 99.5 -18t78.5 -49.5t51.5 -74t18.5 -90.5q0 -36 -11 -70t-31.5 -62.5t-50.5 -50.5t-67 -34l166 -281h-91l-153 264h-196v-264h-78v730zM150 658v-324h179q41 0 74 14t56 37t35 52.5t12 60.5q0 34 -12 63.5t-35 51t-55.5 33.5t-73.5 12h-180zM154 950h80
l71 -100l72 100h80l-119 -162h-65z" />
    <glyph glyph-name="rcaron" unicode="&#x159;" horiz-adv-x="389" 
d="M67 500h77v-78q23 38 62 58t93 20h46v-72h-49q-81 0 -116 -40.5t-35 -128.5v-259h-78v500zM53 720h80l71 -100l72 100h80l-119 -162h-65z" />
    <glyph glyph-name="Sacute" unicode="&#x15a;" horiz-adv-x="563" 
d="M359 950h100l-145 -162h-72zM281 -10q-89 0 -151 35.5t-107 98.5l66 50q37 -57 83 -85t109 -28q34 0 62.5 10.5t49 28.5t32 43.5t11.5 55.5q0 34 -15 57t-40 39.5t-57 28.5t-66 24q-38 13 -74.5 28.5t-65 38.5t-46.5 55.5t-18 80.5q0 40 17 74.5t47 60t71 40t89 14.5
q78 0 132 -29t94 -81l-62 -46q-56 87 -165 87q-31 0 -57 -9t-45.5 -25.5t-30.5 -38.5t-11 -47q0 -32 14.5 -53.5t38.5 -37.5t55.5 -27.5t65.5 -23.5q38 -13 75 -29t66.5 -39.5t48 -57.5t18.5 -84q0 -41 -16.5 -78.5t-47.5 -66.5t-74 -46.5t-96 -17.5z" />
    <glyph glyph-name="sacute" unicode="&#x15b;" horiz-adv-x="475" 
d="M306 720h100l-145 -162h-72zM236 -10q-71 0 -124.5 22.5t-91.5 67.5l61 54q31 -36 68.5 -56t90.5 -20q60 0 90 24.5t30 59.5q0 21 -12.5 34t-32.5 21.5t-45 14.5t-51 12q-30 7 -60.5 16.5t-54.5 25t-39.5 39.5t-15.5 61q0 28 12.5 54t36.5 46.5t58.5 32.5t77.5 12
q61 0 110.5 -19t84.5 -58l-59 -48q-26 30 -57.5 44.5t-78.5 14.5q-54 0 -81.5 -23t-27.5 -55q0 -19 10.5 -31t28.5 -20t42.5 -14t53.5 -13q31 -7 62.5 -16.5t56.5 -26t41 -41.5t16 -63q0 -29 -12.5 -56t-37.5 -48.5t-62.5 -34.5t-87.5 -13z" />
    <glyph glyph-name="Scircumflex" unicode="&#x15c;" horiz-adv-x="563" 
d="M281 -10q-89 0 -151 35.5t-107 98.5l66 50q37 -57 83 -85t109 -28q34 0 62.5 10.5t49 28.5t32 43.5t11.5 55.5q0 34 -15 57t-40 39.5t-57 28.5t-66 24q-38 13 -74.5 28.5t-65 38.5t-46.5 55.5t-18 80.5q0 40 17 74.5t47 60t71 40t89 14.5q78 0 132 -29t94 -81l-62 -46
q-56 87 -165 87q-31 0 -57 -9t-45.5 -25.5t-30.5 -38.5t-11 -47q0 -32 14.5 -53.5t38.5 -37.5t55.5 -27.5t65.5 -23.5q38 -13 75 -29t66.5 -39.5t48 -57.5t18.5 -84q0 -41 -16.5 -78.5t-47.5 -66.5t-74 -46.5t-96 -17.5zM252 950h66l119 -162h-80l-72 100l-71 -100h-81z" />
    <glyph glyph-name="scircumflex" unicode="&#x15d;" horiz-adv-x="475" 
d="M236 -10q-71 0 -124.5 22.5t-91.5 67.5l61 54q31 -36 68.5 -56t90.5 -20q60 0 90 24.5t30 59.5q0 21 -12.5 34t-32.5 21.5t-45 14.5t-51 12q-30 7 -60.5 16.5t-54.5 25t-39.5 39.5t-15.5 61q0 28 12.5 54t36.5 46.5t58.5 32.5t77.5 12q61 0 110.5 -19t84.5 -58l-59 -48
q-26 30 -57.5 44.5t-78.5 14.5q-54 0 -81.5 -23t-27.5 -55q0 -19 10.5 -31t28.5 -20t42.5 -14t53.5 -13q31 -7 62.5 -16.5t56.5 -26t41 -41.5t16 -63q0 -29 -12.5 -56t-37.5 -48.5t-62.5 -34.5t-87.5 -13zM200 720h66l119 -162h-80l-72 100l-71 -100h-81z" />
    <glyph glyph-name="Scedilla" unicode="&#x15e;" horiz-adv-x="563" 
d="M287 -234q-48 0 -83.5 15t-62.5 41l61 37q19 -15 37.5 -25.5t47.5 -10.5t48.5 12t19.5 29q0 36 -71 36h-41v92q-74 7 -127.5 41t-92.5 91l66 50q37 -57 83 -85t109 -28q34 0 62.5 10.5t49 28.5t32 43.5t11.5 55.5q0 34 -15 57t-40 39.5t-57 28.5t-66 24
q-38 13 -74.5 28.5t-65 38.5t-46.5 55.5t-18 80.5q0 40 17 74.5t47 60t71 40t89 14.5q78 0 132 -29t94 -81l-62 -46q-56 87 -165 87q-31 0 -57 -9t-45.5 -25.5t-30.5 -38.5t-11 -47q0 -32 14.5 -53.5t38.5 -37.5t55.5 -27.5t65.5 -23.5q38 -13 75 -29t66.5 -39.5t48 -57.5
t18.5 -84q0 -38 -14.5 -73.5t-41.5 -64t-65.5 -47.5t-85.5 -23v-43q54 0 86.5 -23t32.5 -58q0 -22 -11 -40.5t-30.5 -32t-45 -21t-53.5 -7.5z" />
    <glyph glyph-name="scedilla" unicode="&#x15f;" horiz-adv-x="475" 
d="M240 -234q-48 0 -83.5 15t-62.5 41l61 37q19 -15 37.5 -25.5t47.5 -10.5t48.5 12t19.5 29q0 36 -71 36h-41v92q-112 12 -176 88l61 54q31 -36 68.5 -56t90.5 -20q60 0 90 24.5t30 59.5q0 21 -12.5 34t-32.5 21.5t-45 14.5t-51 12q-30 7 -60.5 16.5t-54.5 25t-39.5 39.5
t-15.5 61q0 28 12.5 54t36.5 46.5t58.5 32.5t77.5 12q61 0 110.5 -19t84.5 -58l-59 -48q-26 30 -57.5 44.5t-78.5 14.5q-54 0 -81.5 -23t-27.5 -55q0 -19 10.5 -31t28.5 -20t42.5 -14t53.5 -13q31 -7 62.5 -16.5t56.5 -26t41 -41.5t16 -63q0 -27 -11 -52.5t-32.5 -46.5
t-54.5 -35t-77 -17v-43q54 0 86.5 -23t32.5 -58q0 -22 -11 -40.5t-30.5 -32t-45 -21t-53.5 -7.5z" />
    <glyph glyph-name="Scaron" unicode="&#x160;" horiz-adv-x="563" 
d="M281 -10q-89 0 -151 35.5t-107 98.5l66 50q37 -57 83 -85t109 -28q34 0 62.5 10.5t49 28.5t32 43.5t11.5 55.5q0 34 -15 57t-40 39.5t-57 28.5t-66 24q-38 13 -74.5 28.5t-65 38.5t-46.5 55.5t-18 80.5q0 40 17 74.5t47 60t71 40t89 14.5q78 0 132 -29t94 -81l-62 -46
q-56 87 -165 87q-31 0 -57 -9t-45.5 -25.5t-30.5 -38.5t-11 -47q0 -32 14.5 -53.5t38.5 -37.5t55.5 -27.5t65.5 -23.5q38 -13 75 -29t66.5 -39.5t48 -57.5t18.5 -84q0 -41 -16.5 -78.5t-47.5 -66.5t-74 -46.5t-96 -17.5zM136 950h80l71 -100l72 100h80l-119 -162h-65z" />
    <glyph glyph-name="scaron" unicode="&#x161;" horiz-adv-x="475" 
d="M236 -10q-71 0 -124.5 22.5t-91.5 67.5l61 54q31 -36 68.5 -56t90.5 -20q60 0 90 24.5t30 59.5q0 21 -12.5 34t-32.5 21.5t-45 14.5t-51 12q-30 7 -60.5 16.5t-54.5 25t-39.5 39.5t-15.5 61q0 28 12.5 54t36.5 46.5t58.5 32.5t77.5 12q61 0 110.5 -19t84.5 -58l-59 -48
q-26 30 -57.5 44.5t-78.5 14.5q-54 0 -81.5 -23t-27.5 -55q0 -19 10.5 -31t28.5 -20t42.5 -14t53.5 -13q31 -7 62.5 -16.5t56.5 -26t41 -41.5t16 -63q0 -29 -12.5 -56t-37.5 -48.5t-62.5 -34.5t-87.5 -13zM79 720h80l71 -100l72 100h80l-119 -162h-65z" />
    <glyph glyph-name="Tcommaaccent" unicode="&#x162;" horiz-adv-x="609" 
d="M228 -264l41 204h71l-59 -204h-53zM266 658h-220v72h517v-72h-219v-658h-78v658z" />
    <glyph glyph-name="tcommaaccent" unicode="&#x163;" horiz-adv-x="363" 
d="M34 500h86v118l78 43v-161h118v-70h-118v-238q0 -38 4.5 -61.5t17.5 -36.5t36 -17t60 -4v-73h-11q-55 0 -90.5 9t-56.5 30.5t-29.5 58.5t-8.5 93v239h-86v70zM130 -254l41 204h71l-59 -204h-53z" />
    <glyph glyph-name="Tcaron" unicode="&#x164;" horiz-adv-x="609" 
d="M266 658h-220v72h517v-72h-219v-658h-78v658zM148 950h80l71 -100l72 100h80l-119 -162h-65z" />
    <glyph glyph-name="tcaron" unicode="&#x165;" horiz-adv-x="363" 
d="M34 500h86v118l78 43v-161h118v-70h-118v-238q0 -38 4.5 -61.5t17.5 -36.5t36 -17t60 -4v-73h-11q-55 0 -90.5 9t-56.5 30.5t-29.5 58.5t-8.5 93v239h-86v70zM291 740h71l-59 -184h-53z" />
    <glyph glyph-name="Tbar" unicode="&#x166;" horiz-adv-x="609" 
d="M172 430h94v228h-220v72h517v-72h-219v-228h92v-53h-92v-377h-78v377h-94v53z" />
    <glyph glyph-name="tbar" unicode="&#x167;" horiz-adv-x="363" 
d="M34 500h86v118l78 43v-161h118v-70h-118v-143h106v-60h-106v-35q0 -38 4.5 -61.5t17.5 -36.5t36 -17t60 -4v-73h-11q-55 0 -90.5 9t-56.5 30.5t-29.5 58.5t-8.5 93v36h-72v60h72v143h-86v70z" />
    <glyph glyph-name="Utilde" unicode="&#x168;" horiz-adv-x="633" 
d="M316 -10q-54 0 -99.5 19t-78.5 52.5t-51.5 78.5t-18.5 98v492h78v-496q0 -35 13 -66t35.5 -54t54 -36.5t67.5 -13.5t67.5 13.5t54.5 36.5t36 54t13 66v496h78v-492q0 -53 -19 -98t-52 -78.5t-78.5 -52.5t-99.5 -19zM145 788q0 55 27.5 87.5t71.5 32.5q25 0 44 -8t37 -19
q17 -11 32 -19.5t31 -8.5q18 0 28.5 13t10.5 39h62q0 -56 -25.5 -88.5t-74.5 -32.5q-29 0 -50.5 11t-40.5 22q-14 8 -26 15t-28 7q-37 0 -37 -51h-62z" />
    <glyph glyph-name="utilde" unicode="&#x169;" horiz-adv-x="595" 
d="M286 -10q-110 0 -165.5 61.5t-55.5 170.5v278h78v-278q0 -73 37.5 -117.5t112.5 -44.5q34 0 63 12.5t50 34.5t33 52t12 64v277h77v-500h-76v74q-26 -38 -69 -61t-97 -23zM121 558q0 55 27.5 87.5t71.5 32.5q25 0 44 -8t37 -19q17 -11 32 -19.5t31 -8.5q18 0 28.5 13
t10.5 39h62q0 -56 -25.5 -88.5t-74.5 -32.5q-29 0 -50.5 11t-40.5 22q-14 8 -26 15t-28 7q-37 0 -37 -51h-62z" />
    <glyph glyph-name="Umacron" unicode="&#x16a;" horiz-adv-x="633" 
d="M316 -10q-54 0 -99.5 19t-78.5 52.5t-51.5 78.5t-18.5 98v492h78v-496q0 -35 13 -66t35.5 -54t54 -36.5t67.5 -13.5t67.5 13.5t54.5 36.5t36 54t13 66v496h78v-492q0 -53 -19 -98t-52 -78.5t-78.5 -52.5t-99.5 -19zM182 855h264v-67h-264v67z" />
    <glyph glyph-name="umacron" unicode="&#x16b;" horiz-adv-x="595" 
d="M286 -10q-110 0 -165.5 61.5t-55.5 170.5v278h78v-278q0 -73 37.5 -117.5t112.5 -44.5q34 0 63 12.5t50 34.5t33 52t12 64v277h77v-500h-76v74q-26 -38 -69 -61t-97 -23zM162 625h264v-67h-264v67z" />
    <glyph glyph-name="Ubreve" unicode="&#x16c;" horiz-adv-x="633" 
d="M316 -10q-54 0 -99.5 19t-78.5 52.5t-51.5 78.5t-18.5 98v492h78v-496q0 -35 13 -66t35.5 -54t54 -36.5t67.5 -13.5t67.5 13.5t54.5 36.5t36 54t13 66v496h78v-492q0 -53 -19 -98t-52 -78.5t-78.5 -52.5t-99.5 -19zM312 784q-41 0 -71.5 13t-50.5 35t-29.5 52t-9.5 63h66
q0 -48 24 -76t71 -29q45 1 69.5 29t24.5 76h68q0 -33 -11.5 -63t-32.5 -52t-51 -35t-67 -13z" />
    <glyph glyph-name="ubreve" unicode="&#x16d;" horiz-adv-x="595" 
d="M286 -10q-110 0 -165.5 61.5t-55.5 170.5v278h78v-278q0 -73 37.5 -117.5t112.5 -44.5q34 0 63 12.5t50 34.5t33 52t12 64v277h77v-500h-76v74q-26 -38 -69 -61t-97 -23zM292 552q-41 0 -71.5 13t-50.5 35t-29.5 52t-9.5 63h66q0 -48 24 -76t71 -29q45 1 69.5 29t24.5 76
h68q0 -33 -11.5 -63t-32.5 -52t-51 -35t-67 -13z" />
    <glyph glyph-name="Uring" unicode="&#x16e;" horiz-adv-x="633" 
d="M311 784q-22 0 -41 8.5t-33.5 23t-23 34t-8.5 41.5q0 23 8.5 42.5t23 34t33.5 23t41 8.5q23 0 43 -8.5t34.5 -23t23 -34t8.5 -42.5q0 -22 -8.5 -41.5t-23 -34t-34.5 -23t-43 -8.5zM311 841q22 0 37 14.5t15 35.5t-15 36.5t-37 15.5q-20 0 -35 -15.5t-15 -36.5t15 -35.5
t35 -14.5zM316 -10q-54 0 -99.5 19t-78.5 52.5t-51.5 78.5t-18.5 98v492h78v-496q0 -35 13 -66t35.5 -54t54 -36.5t67.5 -13.5t67.5 13.5t54.5 36.5t36 54t13 66v496h78v-492q0 -53 -19 -98t-52 -78.5t-78.5 -52.5t-99.5 -19z" />
    <glyph glyph-name="uring" unicode="&#x16f;" horiz-adv-x="595" 
d="M286 -10q-110 0 -165.5 61.5t-55.5 170.5v278h78v-278q0 -73 37.5 -117.5t112.5 -44.5q34 0 63 12.5t50 34.5t33 52t12 64v277h77v-500h-76v74q-26 -38 -69 -61t-97 -23zM293 530q-22 0 -41 8.5t-33.5 23t-23 34t-8.5 41.5q0 23 8.5 42.5t23 34t33.5 23t41 8.5
q23 0 43 -8.5t34.5 -23t23 -34t8.5 -42.5q0 -22 -8.5 -41.5t-23 -34t-34.5 -23t-43 -8.5zM293 587q22 0 37 14.5t15 35.5t-15 36.5t-37 15.5q-20 0 -35 -15.5t-15 -36.5t15 -35.5t35 -14.5z" />
    <glyph glyph-name="Uhungarumlaut" unicode="&#x170;" horiz-adv-x="633" 
d="M316 -10q-54 0 -99.5 19t-78.5 52.5t-51.5 78.5t-18.5 98v492h78v-496q0 -35 13 -66t35.5 -54t54 -36.5t67.5 -13.5t67.5 13.5t54.5 36.5t36 54t13 66v496h78v-492q0 -53 -19 -98t-52 -78.5t-78.5 -52.5t-99.5 -19zM310 950h94l-145 -162h-66zM453 950h94l-145 -162h-67z
" />
    <glyph glyph-name="uhungarumlaut" unicode="&#x171;" horiz-adv-x="595" 
d="M286 -10q-110 0 -165.5 61.5t-55.5 170.5v278h78v-278q0 -73 37.5 -117.5t112.5 -44.5q34 0 63 12.5t50 34.5t33 52t12 64v277h77v-500h-76v74q-26 -38 -69 -61t-97 -23zM442 720h94l-145 -162h-67zM299 720h94l-145 -162h-66z" />
    <glyph glyph-name="Uogonek" unicode="&#x172;" horiz-adv-x="633" 
d="M319 -215q-30 0 -55 8t-42.5 21.5t-27.5 32t-10 39.5q0 29 16 55.5t58 55.5q-42 9 -77 31t-60 53.5t-39 71.5t-14 85v492h78v-496q0 -35 13 -66t35.5 -54t54 -36.5t67.5 -13.5t67.5 13.5t54.5 36.5t36 54t13 66v496h78v-492q0 -44 -13.5 -83.5t-37.5 -71t-58 -53.5
t-74 -32q-36 -22 -59.5 -37.5t-37 -27.5t-18.5 -22t-5 -21q0 -20 16.5 -30.5t40.5 -10.5q25 0 41.5 10t32.5 24l61 -42q-26 -23 -62 -39.5t-73 -16.5z" />
    <glyph glyph-name="uogonek" unicode="&#x173;" horiz-adv-x="595" 
d="M286 -10q-110 0 -165.5 61.5t-55.5 170.5v278h78v-278q0 -73 37.5 -117.5t112.5 -44.5q34 0 63 12.5t50 34.5t33 52t12 64v277h77v-500q-41 -32 -60 -56.5t-19 -48.5q0 -20 13.5 -33t35.5 -13q21 0 35.5 7.5t28.5 18.5l44 -54q-23 -17 -51.5 -27.5t-56.5 -10.5
q-32 0 -55 9t-38 24.5t-22 35t-7 40.5q0 35 21 66.5t55 58.5v57q-26 -38 -69 -61t-97 -23z" />
    <glyph glyph-name="Wcircumflex" unicode="&#x174;" horiz-adv-x="1070" 
d="M36 730h83l174 -609l202 609h75l200 -610l184 610h80l-225 -730h-79l-199 608l-201 -608h-80zM497 950h66l119 -162h-80l-72 100l-71 -100h-81z" />
    <glyph glyph-name="wcircumflex" unicode="&#x175;" horiz-adv-x="864" 
d="M36 500h82l126 -390l148 390h75l152 -392l128 392h81l-169 -500h-75l-155 393l-151 -393h-77zM399 720h66l119 -162h-80l-72 100l-71 -100h-81z" />
    <glyph glyph-name="Ycircumflex" unicode="&#x176;" horiz-adv-x="619" 
d="M271 347l-242 383h87l194 -309l193 309h87l-241 -382v-348h-78v347zM274 950h66l119 -162h-80l-72 100l-71 -100h-81z" />
    <glyph glyph-name="ycircumflex" unicode="&#x177;" horiz-adv-x="560" 
d="M246 29l-216 471h85l172 -382l159 382h84l-315 -731h-82zM244 720h66l119 -162h-80l-72 100l-71 -100h-81z" />
    <glyph glyph-name="Ydieresis" unicode="&#x178;" horiz-adv-x="619" 
d="M271 347l-242 383h87l194 -309l193 309h87l-241 -382v-348h-78v347zM338 841q0 24 16.5 40t39.5 16q24 0 40 -16t16 -40q0 -23 -16 -39.5t-40 -16.5q-25 0 -40.5 16.5t-15.5 39.5zM169 841q0 24 16.5 40t39.5 16q24 0 40 -16t16 -40q0 -23 -16 -39.5t-40 -16.5
q-25 0 -40.5 16.5t-15.5 39.5z" />
    <glyph glyph-name="Zacute" unicode="&#x179;" horiz-adv-x="603" 
d="M60 72l391 584h-379v74h471v-71l-391 -584h391v-75h-483v72zM371 950h100l-145 -162h-72z" />
    <glyph glyph-name="zacute" unicode="&#x17a;" horiz-adv-x="534" 
d="M50 74l336 354h-327v72h422v-74l-337 -355h340v-71h-434v74zM344 720h100l-145 -162h-72z" />
    <glyph glyph-name="Zdotaccent" unicode="&#x17b;" horiz-adv-x="603" 
d="M60 72l391 584h-379v74h471v-71l-391 -584h391v-75h-483v72zM245 847q0 26 17.5 43.5t43.5 17.5q27 0 44.5 -17.5t17.5 -43.5t-17.5 -44t-44.5 -18t-44 18t-17 44z" />
    <glyph glyph-name="zdotaccent" unicode="&#x17c;" horiz-adv-x="534" 
d="M50 74l336 354h-327v72h422v-74l-337 -355h340v-71h-434v74zM211 638q0 26 17.5 43.5t43.5 17.5q27 0 44.5 -17.5t17.5 -43.5t-17.5 -44t-44.5 -18t-44 18t-17 44z" />
    <glyph glyph-name="Zcaron" unicode="&#x17d;" horiz-adv-x="603" 
d="M60 72l391 584h-379v74h471v-71l-391 -584h391v-75h-483v72zM151 950h80l71 -100l72 100h80l-119 -162h-65z" />
    <glyph glyph-name="zcaron" unicode="&#x17e;" horiz-adv-x="534" 
d="M50 74l336 354h-327v72h422v-74l-337 -355h340v-71h-434v74zM122 720h80l71 -100l72 100h80l-119 -162h-65z" />
    <glyph glyph-name="florin" unicode="&#x192;" 
d="M112 409h160l42 127q18 56 38.5 93.5t45.5 60t56 31.5t69 9h6v-71q-25 0 -45 -6t-36.5 -20.5t-30 -39.5t-25.5 -64l-40 -120h142v-69h-164l-48 -146q-18 -55 -36 -92.5t-42.5 -60t-57.5 -32t-80 -9.5h-7v72q31 0 53 6t38 20.5t28.5 39.5t25.5 64l45 138h-137v69z" />
    <glyph glyph-name="Aringacute" unicode="&#x1fa;" horiz-adv-x="705" 
d="M295 691q-25 14 -40 38.5t-15 55.5q0 23 8.5 42.5t23 34t33.5 23t41 8.5q23 0 43 -8.5t34.5 -23t23 -34t8.5 -42.5q0 -28 -13 -51.5t-35 -37.5l264 -696h-81l-71 185h-333l-70 -185h-82zM214 259h277l-139 366zM423 1083h100l-145 -162h-72zM346 735q22 0 37 14.5
t15 35.5t-15 36.5t-37 15.5q-20 0 -35 -15.5t-15 -36.5t15 -35.5t35 -14.5z" />
    <glyph glyph-name="aringacute" unicode="&#x1fb;" horiz-adv-x="632" 
d="M220 -10q-50 0 -84.5 12t-56.5 32t-31.5 46.5t-9.5 55.5q0 75 59.5 119t169.5 44h168v11q0 130 -150 130q-58 0 -97 -22.5t-71 -67.5l-66 45q44 54 101.5 84.5t134.5 30.5q107 0 165 -52t58 -145v-313h-76v95q-36 -50 -92.5 -77.5t-121.5 -27.5zM228 59q59 0 115.5 31
t91.5 92v51h-157q-91 0 -127 -24.5t-36 -68.5q0 -38 27 -59.5t86 -21.5zM314 551q-22 0 -41 8.5t-33.5 23t-23 34t-8.5 41.5q0 23 8.5 42.5t23 34t33.5 23t41 8.5q23 0 43 -8.5t34.5 -23t23 -34t8.5 -42.5q0 -22 -8.5 -41.5t-23 -34t-34.5 -23t-43 -8.5zM390 956h100
l-145 -162h-72zM314 608q22 0 37 14.5t15 35.5t-15 36.5t-37 15.5q-20 0 -35 -15.5t-15 -36.5t15 -35.5t35 -14.5z" />
    <glyph glyph-name="AEacute" unicode="&#x1fc;" horiz-adv-x="1101" 
d="M418 730h576v-74h-474l59 -253h415v-74h-398l59 -254h339v-75h-401l-42 181h-305l-86 -181h-88zM280 253h254l-83 360zM686 950h100l-145 -162h-72z" />
    <glyph glyph-name="aeacute" unicode="&#x1fd;" horiz-adv-x="960" 
d="M659 -10q-77 0 -135 30.5t-91 84.5q-12 -22 -32 -43t-47 -37t-60 -25.5t-71 -9.5q-47 0 -81 10.5t-55.5 29t-32 43.5t-10.5 54q0 36 13.5 61.5t38 43.5t57 30t69.5 20q33 7 64.5 14t56.5 16t40 22t15 34q0 35 -32 57.5t-95 22.5q-71 0 -108.5 -33.5t-37.5 -84.5v-3h-72v2
q0 84 57.5 132.5t157.5 48.5q70 0 119 -23t70 -65q35 41 85 64.5t112 23.5q54 0 100.5 -18t81 -51t54.5 -79.5t20 -103.5v-32h-440q3 -37 19 -68t41 -53t58 -34t71 -12q61 0 103.5 28.5t65.5 74.5l67 -33q-35 -66 -93 -102.5t-143 -36.5zM226 54q36 0 65.5 12.5t52 31.5
t37.5 41t21 41q-7 29 -7 66q0 8 0.5 15t1.5 15q-12 -18 -48 -28.5t-92 -22.5q-31 -6 -56 -13.5t-42.5 -18t-27 -26.5t-9.5 -38q0 -32 24 -53.5t80 -21.5zM654 441q-34 0 -63.5 -11t-53 -30t-40 -46t-23.5 -58h357q-11 68 -57.5 106.5t-119.5 38.5zM543 720h100l-145 -162
h-72z" />
    <glyph glyph-name="Oslashacute" unicode="&#x1fe;" horiz-adv-x="850" 
d="M169 90q-55 52 -87 122.5t-32 152.5q0 78 29.5 146t80.5 119t119 80.5t146 29.5q57 0 107.5 -15.5t95.5 -44.5l74 95l50 -39l-74 -95q57 -51 89.5 -122.5t32.5 -153.5q0 -78 -29.5 -146t-80.5 -119t-119 -80.5t-146 -29.5q-57 0 -109 16t-97 45l-73 -94l-50 39zM425 64
q63 0 117 24t93.5 65t62 95.5t22.5 116.5q0 63 -23.5 118.5t-65.5 97.5l-366 -471q35 -22 75 -34t85 -12zM130 365q0 -63 22.5 -118t63.5 -97l366 471q-34 21 -73.5 33t-83.5 12q-63 0 -117 -24t-93.5 -65t-62 -95.5t-22.5 -116.5zM496 950h100l-145 -162h-72z" />
    <glyph glyph-name="oslashacute" unicode="&#x1ff;" horiz-adv-x="615" 
d="M119 69q-33 35 -52 81t-19 100q0 55 20 102.5t55.5 82.5t82.5 55t101 20q38 0 73.5 -10.5t66.5 -29.5l51 63l48 -36l-53 -65q35 -35 54.5 -81.5t19.5 -100.5q0 -55 -20.5 -102.5t-55.5 -82.5t-82.5 -55t-101.5 -20q-78 0 -140 40l-53 -66l-49 38zM307 60q38 0 71.5 15
t58 40.5t38.5 60.5t14 74q0 35 -12 66.5t-32 56.5l-232 -286q20 -13 44 -20t50 -7zM126 250q0 -35 10.5 -66t30.5 -56l233 285q-20 13 -43.5 20t-49.5 7q-38 0 -71 -15t-57.5 -40.5t-38.5 -60.5t-14 -74zM377 720h100l-145 -162h-72z" />
    <glyph glyph-name="Scommaaccent" unicode="&#x218;" horiz-adv-x="563" 
d="M215 -254l41 204h71l-59 -204h-53zM281 -10q-89 0 -151 35.5t-107 98.5l66 50q37 -57 83 -85t109 -28q34 0 62.5 10.5t49 28.5t32 43.5t11.5 55.5q0 34 -15 57t-40 39.5t-57 28.5t-66 24q-38 13 -74.5 28.5t-65 38.5t-46.5 55.5t-18 80.5q0 40 17 74.5t47 60t71 40
t89 14.5q78 0 132 -29t94 -81l-62 -46q-56 87 -165 87q-31 0 -57 -9t-45.5 -25.5t-30.5 -38.5t-11 -47q0 -32 14.5 -53.5t38.5 -37.5t55.5 -27.5t65.5 -23.5q38 -13 75 -29t66.5 -39.5t48 -57.5t18.5 -84q0 -41 -16.5 -78.5t-47.5 -66.5t-74 -46.5t-96 -17.5z" />
    <glyph glyph-name="scommaaccent" unicode="&#x219;" horiz-adv-x="475" 
d="M161 -259l41 204h71l-59 -204h-53zM236 -10q-71 0 -124.5 22.5t-91.5 67.5l61 54q31 -36 68.5 -56t90.5 -20q60 0 90 24.5t30 59.5q0 21 -12.5 34t-32.5 21.5t-45 14.5t-51 12q-30 7 -60.5 16.5t-54.5 25t-39.5 39.5t-15.5 61q0 28 12.5 54t36.5 46.5t58.5 32.5t77.5 12
q61 0 110.5 -19t84.5 -58l-59 -48q-26 30 -57.5 44.5t-78.5 14.5q-54 0 -81.5 -23t-27.5 -55q0 -19 10.5 -31t28.5 -20t42.5 -14t53.5 -13q31 -7 62.5 -16.5t56.5 -26t41 -41.5t16 -63q0 -29 -12.5 -56t-37.5 -48.5t-62.5 -34.5t-87.5 -13z" />
    <glyph glyph-name="dotlessj" unicode="&#x237;" horiz-adv-x="213" 
d="M-53 -155q37 0 60.5 4t37 16.5t18 36t4.5 61.5v537h79v-538q0 -56 -9 -93t-31 -58.5t-57.5 -30.5t-89.5 -9h-12v74z" />
    <glyph glyph-name="circumflex" unicode="&#x2c6;" horiz-adv-x="498" 
d="M216 720h66l119 -162h-80l-72 100l-71 -100h-81z" />
    <glyph glyph-name="caron" unicode="&#x2c7;" horiz-adv-x="498" 
d="M97 720h80l71 -100l72 100h80l-119 -162h-65z" />
    <glyph glyph-name="breve" unicode="&#x2d8;" horiz-adv-x="498" 
d="M248 552q-41 0 -71.5 13t-50.5 35t-29.5 52t-9.5 63h66q0 -48 24 -76t71 -29q45 1 69.5 29t24.5 76h68q0 -33 -11.5 -63t-32.5 -52t-51 -35t-67 -13z" />
    <glyph glyph-name="dotaccent" unicode="&#x2d9;" horiz-adv-x="504" 
d="M181 617q0 26 17.5 43.5t43.5 17.5q27 0 44.5 -17.5t17.5 -43.5t-17.5 -44t-44.5 -18t-44 18t-17 44z" />
    <glyph glyph-name="ring" unicode="&#x2da;" horiz-adv-x="498" 
d="M246 554q-22 0 -41 8.5t-33.5 23t-23 34t-8.5 41.5q0 23 8.5 42.5t23 34t33.5 23t41 8.5q23 0 43 -8.5t34.5 -23t23 -34t8.5 -42.5q0 -22 -8.5 -41.5t-23 -34t-34.5 -23t-43 -8.5zM246 611q22 0 37 14.5t15 35.5t-15 36.5t-37 15.5q-20 0 -35 -15.5t-15 -36.5t15 -35.5
t35 -14.5z" />
    <glyph glyph-name="ogonek" unicode="&#x2db;" horiz-adv-x="498" 
d="M243 -217q-30 0 -55 8t-42.5 21.5t-27.5 32t-10 39.5q0 37 30 73t111 75l62 -33q-38 -23 -62 -39t-38 -28.5t-19.5 -22.5t-5.5 -21q0 -20 16.5 -30.5t40.5 -10.5q25 0 41.5 10t32.5 24l61 -42q-26 -23 -62 -39.5t-73 -16.5z" />
    <glyph glyph-name="tilde" unicode="&#x2dc;" horiz-adv-x="498" 
d="M75 558q0 55 27.5 87.5t71.5 32.5q25 0 44 -8t37 -19q17 -11 32 -19.5t31 -8.5q18 0 28.5 13t10.5 39h62q0 -56 -25.5 -88.5t-74.5 -32.5q-29 0 -50.5 11t-40.5 22q-14 8 -26 15t-28 7q-37 0 -37 -51h-62v0z" />
    <glyph glyph-name="hungarumlaut" unicode="&#x2dd;" horiz-adv-x="498" 
d="M188 720h94l-145 -162h-66zM331 720h94l-145 -162h-67z" />
    <glyph glyph-name="uni0328" unicode="&#x328;" horiz-adv-x="498" 
d="M284 -217q-32 0 -55 9t-38 24.5t-22 35t-7 40.5q0 39 27 75t68 65l57 -32q-41 -32 -60 -56.5t-19 -48.5q0 -20 13.5 -33t35.5 -13q21 0 35.5 7.5t28.5 18.5l44 -54q-23 -17 -51.5 -27.5t-56.5 -10.5z" />
    <glyph glyph-name="pi" unicode="&#x3d6;" horiz-adv-x="751" 
d="M43 730h666v-76h-144v-454q0 -66 22 -96.5t76 -30.5h44v-73h-48q-93 0 -132.5 51.5t-39.5 147.5v455h-235v-654h-78v654h-131v76z" />
    <glyph glyph-name="pi" unicode="&#x3c0;" horiz-adv-x="751" 
d="M43 730h666v-76h-144v-454q0 -66 22 -96.5t76 -30.5h44v-73h-48q-93 0 -132.5 51.5t-39.5 147.5v455h-235v-654h-78v654h-131v76z" />
    <glyph glyph-name="uni0E3F" unicode="&#xe3f;" horiz-adv-x="528" 
d="M62 662h166v68h68v-69q80 -4 127 -46t47 -113q0 -43 -19 -75.5t-57 -51.5q41 -19 63 -54t22 -85q0 -78 -50 -122.5t-133 -47.5v-66h-68v66h-166v596zM139 137h89v199h-89v-199zM402 237q0 42 -25.5 68.5t-80.5 29.5v-198q49 2 77.5 30t28.5 70zM139 409h89v182h-89v-182z
M393 502q0 38 -25 61.5t-72 26.5v-181q49 2 73 28t24 65z" />
    <glyph glyph-name="Wgrave" unicode="&#x1e80;" horiz-adv-x="1070" 
d="M36 730h83l174 -609l202 609h75l200 -610l184 610h80l-225 -730h-79l-199 608l-201 -608h-80zM348 950h99l118 -162h-72z" />
    <glyph glyph-name="wgrave" unicode="&#x1e81;" horiz-adv-x="864" 
d="M36 500h82l126 -390l148 390h75l152 -392l128 392h81l-169 -500h-75l-155 393l-151 -393h-77zM250 720h99l118 -162h-72z" />
    <glyph glyph-name="Wacute" unicode="&#x1e82;" horiz-adv-x="1070" 
d="M36 730h83l174 -609l202 609h75l200 -610l184 610h80l-225 -730h-79l-199 608l-201 -608h-80zM606 950h100l-145 -162h-72z" />
    <glyph glyph-name="wacute" unicode="&#x1e83;" horiz-adv-x="864" 
d="M36 500h82l126 -390l148 390h75l152 -392l128 392h81l-169 -500h-75l-155 393l-151 -393h-77zM511 720h100l-145 -162h-72z" />
    <glyph glyph-name="Wdieresis" unicode="&#x1e84;" horiz-adv-x="1070" 
d="M36 730h83l174 -609l202 609h75l200 -610l184 610h80l-225 -730h-79l-199 608l-201 -608h-80zM562 841q0 24 16.5 40t39.5 16q24 0 40 -16t16 -40q0 -23 -16 -39.5t-40 -16.5q-25 0 -40.5 16.5t-15.5 39.5zM393 841q0 24 16.5 40t39.5 16q24 0 40 -16t16 -40
q0 -23 -16 -39.5t-40 -16.5q-25 0 -40.5 16.5t-15.5 39.5z" />
    <glyph glyph-name="wdieresis" unicode="&#x1e85;" horiz-adv-x="864" 
d="M36 500h82l126 -390l148 390h75l152 -392l128 392h81l-169 -500h-75l-155 393l-151 -393h-77zM464 611q0 24 16.5 40t39.5 16q24 0 40 -16t16 -40q0 -23 -16 -39.5t-40 -16.5q-25 0 -40.5 16.5t-15.5 39.5zM295 611q0 24 16.5 40t39.5 16q24 0 40 -16t16 -40
q0 -23 -16 -39.5t-40 -16.5q-25 0 -40.5 16.5t-15.5 39.5z" />
    <glyph glyph-name="Ygrave" unicode="&#x1ef2;" horiz-adv-x="619" 
d="M271 347l-242 383h87l194 -309l193 309h87l-241 -382v-348h-78v347zM127 950h99l118 -162h-72z" />
    <glyph glyph-name="ygrave" unicode="&#x1ef3;" horiz-adv-x="560" 
d="M246 29l-216 471h85l172 -382l159 382h84l-315 -731h-82zM100 720h99l118 -162h-72z" />
    <glyph glyph-name="figuredash" unicode="&#x2012;" horiz-adv-x="674" 
d="M52 284h570v-68h-570v68z" />
    <glyph glyph-name="endash" unicode="&#x2013;" horiz-adv-x="524" 
d="M52 284h420v-68h-420v68z" />
    <glyph glyph-name="emdash" unicode="&#x2014;" horiz-adv-x="724" 
d="M52 284h620v-68h-620v68z" />
    <glyph glyph-name="uni2015" unicode="&#x2015;" horiz-adv-x="1024" 
d="M52 284h920v-68h-920v68z" />
    <glyph glyph-name="doublebar" unicode="&#x2016;" horiz-adv-x="373" 
d="M62 730h78v-960h-78v960zM233 730h78v-960h-78v960z" />
    <glyph glyph-name="quoteleft" unicode="&#x2018;" horiz-adv-x="200" 
d="M156 526h-52l-65 204h75z" />
    <glyph glyph-name="quoteright" unicode="&#x2019;" horiz-adv-x="200" 
d="M42 526l42 204h75l-65 -204h-52z" />
    <glyph glyph-name="quotesinglbase" unicode="&#x201a;" horiz-adv-x="201" 
d="M31 -117l42 204h75l-65 -204h-52z" />
    <glyph glyph-name="reversequoteleft" unicode="&#x201b;" horiz-adv-x="200" 
d="M42 526l42 204h75l-65 -204h-52z" />
    <glyph glyph-name="quotedblleft" unicode="&#x201c;" horiz-adv-x="319" 
d="M156 526h-50l-63 204h71zM275 526h-50l-62 204h71z" />
    <glyph glyph-name="quotedblright" unicode="&#x201d;" horiz-adv-x="319" 
d="M42 526l42 204h75l-65 -204h-52zM162 526l42 204h75l-65 -204h-52z" />
    <glyph glyph-name="quotedblbase" unicode="&#x201e;" horiz-adv-x="320" 
d="M34 -117l42 204h75l-65 -204h-52zM154 -117l42 204h75l-65 -204h-52z" />
    <glyph glyph-name="reversequotedblleft" unicode="&#x201f;" horiz-adv-x="319" 
d="M42 526l42 204h75l-65 -204h-52zM162 526l42 204h75l-65 -204h-52z" />
    <glyph glyph-name="dagger" unicode="&#x2020;" horiz-adv-x="576" 
d="M62 500h186v230h78v-230h189v-69h-189v-431h-78v431h-186v69z" />
    <glyph glyph-name="daggerdbl" unicode="&#x2021;" horiz-adv-x="576" 
d="M62 528h186v202h78v-202h189v-68h-189v-182h189v-68h-189v-210h-78v210h-186v68h186v182h-186v68z" />
    <glyph glyph-name="bullet" unicode="&#x2022;" horiz-adv-x="335" 
d="M168 177q-30 0 -51.5 21.5t-21.5 51.5t21.5 51.5t51.5 21.5t51.5 -21.5t21.5 -51.5t-21.5 -51.5t-51.5 -21.5z" />
    <glyph glyph-name="ellipsis" unicode="&#x2026;" 
d="M45 52q0 26 17.5 43.5t43.5 17.5q27 0 44.5 -17.5t17.5 -43.5t-17.5 -44t-44.5 -18t-44 18t-17 44zM232 52q0 26 17.5 43.5t43.5 17.5q27 0 44.5 -17.5t17.5 -43.5t-17.5 -44t-44.5 -18t-44 18t-17 44zM420 52q0 26 17.5 43.5t43.5 17.5q27 0 44.5 -17.5t17.5 -43.5
t-17.5 -44t-44.5 -18t-44 18t-17 44z" />
    <glyph glyph-name="perthousand" unicode="&#x2030;" horiz-adv-x="1261" 
d="M698 730h99l-627 -730h-99zM633 -11q-35 0 -66 13.5t-54 36.5t-36 54t-13 66t13 66t36 54t54 36t66 13t66 -13t54 -36t36.5 -54t13.5 -66t-13.5 -66t-36.5 -54t-54 -36.5t-66 -13.5zM633 54q21 0 39.5 8t32.5 22.5t22 33.5t8 41t-8 41t-22 33t-32.5 22t-39.5 8t-39.5 -8
t-32 -22t-21.5 -33t-8 -41t8 -41t21.5 -33.5t32 -22.5t39.5 -8zM235 401q-35 0 -66 13.5t-54 36.5t-36.5 54t-13.5 66t13.5 66t36.5 54t54 36t66 13t65.5 -13t53.5 -36t36.5 -54t13.5 -66t-13.5 -66t-36.5 -54t-53.5 -36.5t-65.5 -13.5zM235 466q21 0 39.5 8t32 22.5
t21.5 33.5t8 41t-8 41t-21.5 33t-32 22t-39.5 8t-39.5 -8t-32.5 -22t-22 -33t-8 -41t8 -41t22 -33.5t32.5 -22.5t39.5 -8zM1026 -11q-35 0 -66 13.5t-54 36.5t-36 54t-13 66t13 66t36 54t54 36t66 13t66 -13t54 -36t36.5 -54t13.5 -66t-13.5 -66t-36.5 -54t-54 -36.5
t-66 -13.5zM1026 54q21 0 39.5 8t32.5 22.5t22 33.5t8 41t-8 41t-22 33t-32.5 22t-39.5 8t-39.5 -8t-32 -22t-21.5 -33t-8 -41t8 -41t21.5 -33.5t32 -22.5t39.5 -8z" />
    <glyph glyph-name="minute" unicode="&#x2032;" horiz-adv-x="200" 
d="M42 526l42 204h75l-65 -204h-52z" />
    <glyph glyph-name="second" unicode="&#x2033;" horiz-adv-x="319" 
d="M42 526l42 204h75l-65 -204h-52zM162 526l42 204h75l-65 -204h-52z" />
    <glyph glyph-name="tripleprime" unicode="&#x2034;" horiz-adv-x="419" 
d="M81 500q-2 9 -6 26.5t-7.5 38t-6 42t-2.5 39.5v84h68v-84q0 -17 -2.5 -38.5t-6 -42t-7.5 -38.5l-6 -27h-24zM198 500q-2 9 -6 26.5t-7.5 38t-6 42t-2.5 39.5v84h68v-84q0 -17 -2.5 -38.5t-6 -42t-7.5 -38.5l-6 -27h-24zM315 500q-2 9 -6 26.5t-7.5 38t-6 42t-2.5 39.5v84
h68v-84q0 -17 -2.5 -38.5t-6 -42t-7.5 -38.5l-6 -27h-24z" />
    <glyph glyph-name="guilsinglleft" unicode="&#x2039;" horiz-adv-x="292" 
d="M69 225v50l155 119v-62l-109 -82l109 -82v-62z" />
    <glyph glyph-name="guilsinglright" unicode="&#x203a;" horiz-adv-x="292" 
d="M69 168l108 82l-108 83v62l155 -119v-50l-155 -119v61z" />
    <glyph glyph-name="interrobang" unicode="&#x203d;" horiz-adv-x="547" 
d="M239 170q-1 37 -1.5 92.5t-1 116.5t-0.5 122.5v111.5v55q-42 -8 -68 -32t-45 -57l-69 32q13 26 34.5 49.5t49.5 41t62.5 28t74.5 10.5q46 0 86 -13.5t69 -37.5t45.5 -58t16.5 -76q0 -47 -14 -78.5t-35.5 -55t-46.5 -44t-46.5 -46.5t-35.5 -62t-14 -90v-9h-61zM413 556
q0 43 -28.5 73t-73.5 39v-55q0 -53 -2 -116t-6 -126q18 25 37.5 44.5t35.5 39t26.5 43.5t10.5 58zM208 52q0 26 17.5 43.5t43.5 17.5q27 0 44.5 -17.5t17.5 -43.5t-17.5 -44t-44.5 -18t-44 18t-17 44z" />
    <glyph glyph-name="fraction" unicode="&#x2044;" horiz-adv-x="670" 
d="M554 730h91l-527 -730h-91z" />
    <glyph glyph-name="uni2070" unicode="&#x2070;" horiz-adv-x="486" 
d="M243 302q-45 0 -84.5 17t-68.5 46.5t-46 69t-17 84.5t17 84.5t46 69t68.5 46.5t84.5 17t84.5 -17t68.5 -46.5t46 -69t17 -84.5t-17 -84.5t-46 -69t-68.5 -46.5t-84.5 -17zM243 370q31 0 57.5 12t46.5 32t31.5 47.5t11.5 57.5q0 31 -11.5 58t-31.5 47t-46.5 32t-57.5 12
t-57.5 -12t-46 -32t-31 -47t-11.5 -58q0 -30 11.5 -57.5t31 -47.5t46 -32t57.5 -12z" />
    <glyph glyph-name="uni2074" unicode="&#x2074;" horiz-adv-x="379" 
d="M217 405h-185v64l182 261h72v-261h61v-64h-61v-97h-69v97zM217 469v155l-109 -155h109z" />
    <glyph glyph-name="uni2075" unicode="&#x2075;" horiz-adv-x="342" 
d="M171 302q-54 0 -90 23.5t-53 55.5l64 39q11 -22 30 -37.5t50 -15.5q30 0 51.5 20.5t21.5 54.5t-21 55.5t-53 21.5q-28 0 -46.5 -13t-29.5 -34l-63 30l31 228h232v-66h-176l-14 -104q14 10 31.5 16.5t40.5 6.5q28 0 53 -9t44 -27t30.5 -44.5t11.5 -60.5q0 -31 -11 -57
t-30 -44.5t-46 -28.5t-58 -10z" />
    <glyph glyph-name="uni2076" unicode="&#x2076;" horiz-adv-x="353" 
d="M177 302q-33 0 -60.5 11.5t-47.5 31t-31 46t-11 56.5q0 29 8.5 57t23.5 50l113 176h82l-93 -142q7 2 14 3t15 1q28 0 53 -11t44 -30t29.5 -46t10.5 -58q0 -32 -11.5 -58.5t-31.5 -45.5t-47.5 -30t-59.5 -11zM176 366q16 0 31 6.5t26.5 17.5t18 26.5t6.5 32.5
q0 34 -24.5 57.5t-57.5 23.5q-34 0 -57.5 -23.5t-23.5 -58.5q0 -34 23.5 -58t57.5 -24z" />
    <glyph glyph-name="uni2077" unicode="&#x2077;" horiz-adv-x="327" 
d="M221 663h-190v67h264v-61l-155 -361h-75z" />
    <glyph glyph-name="uni2078" unicode="&#x2078;" horiz-adv-x="338" 
d="M169 302q-32 0 -56.5 10.5t-42 28.5t-26.5 41.5t-9 49.5q0 32 15 57.5t39 41.5q-19 14 -30 35t-11 51q0 24 8.5 45.5t24.5 38t38.5 26t49.5 9.5t49 -9.5t38.5 -26t25.5 -38t9 -45.5q0 -29 -11.5 -50t-31.5 -35q23 -15 38.5 -40.5t15.5 -59.5q0 -26 -9 -49.5t-26 -41.5
t-42 -28.5t-56 -10.5zM168 366q30 0 47.5 19.5t17.5 46.5t-17 46.5t-48 19.5q-29 0 -46.5 -19.5t-17.5 -46.5t17.5 -46.5t46.5 -19.5zM168 563q24 0 38 15t14 39q0 22 -13.5 38t-38.5 16q-23 0 -36.5 -16t-13.5 -38q0 -24 13.5 -39t36.5 -15z" />
    <glyph glyph-name="uni2079" unicode="&#x2079;" horiz-adv-x="353" 
d="M192 451q-13 -4 -29 -4q-28 0 -53 10.5t-43.5 30t-29.5 45.5t-11 58t11.5 58.5t32 46t47.5 30t59 10.5t59.5 -11.5t47.5 -31t31.5 -46t11.5 -56.5q0 -29 -9 -57t-23 -50l-112 -176h-84zM177 508q34 0 57.5 24.5t23.5 58.5t-23.5 58t-57.5 24t-58 -24t-24 -59
q0 -34 24 -58t58 -24z" />
    <glyph glyph-name="uni207A" unicode="&#x207a;" horiz-adv-x="281" 
d="M34 549h78v76h58v-76h77v-59h-77v-78h-58v78h-78v59z" />
    <glyph glyph-name="uni207B" unicode="&#x207b;" horiz-adv-x="281" 
d="M34 549h213v-59h-213v59z" />
    <glyph glyph-name="uni207C" unicode="&#x207c;" horiz-adv-x="281" 
d="M34 595h213v-59h-213v59zM34 499h213v-59h-213v59z" />
    <glyph glyph-name="uni207D" unicode="&#x207d;" horiz-adv-x="270" 
d="M181 249q-74 51 -114 118t-40 160q0 94 41.5 161t110.5 117l46 -57q-55 -38 -90.5 -90.5t-35.5 -130.5q0 -77 36 -129.5t91 -90.5l-45 -58v0z" />
    <glyph glyph-name="uni207E" unicode="&#x207e;" horiz-adv-x="270" 
d="M44 307q55 38 91 90.5t36 129.5q0 78 -35.5 130.5t-90.5 90.5l46 57q34 -26 62.5 -55t48 -62.5t30.5 -73.5t11 -87q0 -93 -40 -160t-114 -118z" />
    <glyph glyph-name="uni2080" unicode="&#x2080;" horiz-adv-x="486" 
d="M243 -6q-45 0 -84.5 17t-68.5 46.5t-46 69t-17 84.5t17 84.5t46 69t68.5 46.5t84.5 17t84.5 -17t68.5 -46.5t46 -69t17 -84.5t-17 -84.5t-46 -69t-68.5 -46.5t-84.5 -17zM243 62q31 0 57.5 12t46.5 32t31.5 47.5t11.5 57.5q0 31 -11.5 58t-31.5 47t-46.5 32t-57.5 12
t-57.5 -12t-46 -32t-31 -47t-11.5 -58q0 -30 11.5 -57.5t31 -47.5t46 -32t57.5 -12z" />
    <glyph glyph-name="uni2081" unicode="&#x2081;" horiz-adv-x="293" 
d="M32 67h84v245q-9 -14 -29 -23.5t-40 -9.5h-7v74h3q21 0 35.5 6.5t23 16.5t12.5 22.5t4 23.5h68v-355h80v-67h-234v67z" />
    <glyph glyph-name="uni2082" unicode="&#x2082;" horiz-adv-x="338" 
d="M35 66q0 27 10 48.5t26 39.5t36 33.5t40 29.5q33 23 59 44.5t26 49.5q0 23 -16.5 39.5t-48.5 16.5q-29 0 -48 -17t-31 -43l-60 30q19 42 54 66.5t85 24.5q31 0 56.5 -9.5t43 -25.5t27 -37.5t9.5 -45.5q0 -25 -9.5 -45t-24.5 -37t-34.5 -31.5t-38.5 -27.5
q-17 -12 -33.5 -23.5t-29 -23.5t-20 -25.5t-7.5 -29.5h198v-67h-269v66z" />
    <glyph glyph-name="uni2083" unicode="&#x2083;" horiz-adv-x="321" 
d="M153 -6q-41 0 -75 14t-61 46l60 45q29 -41 76 -41q31 0 50.5 17t19.5 46t-22.5 46t-57.5 17h-43v66h43q36 0 55 17t19 43t-18.5 41.5t-49.5 15.5q-26 0 -42.5 -11.5t-27.5 -31.5l-59 33q18 32 52 51.5t77 19.5q63 0 99 -31.5t36 -85.5q0 -30 -13.5 -53.5t-37.5 -38.5
q28 -15 44 -39.5t16 -58.5q0 -55 -36.5 -91t-103.5 -36z" />
    <glyph glyph-name="uni2084" unicode="&#x2084;" horiz-adv-x="379" 
d="M217 97h-185v64l182 261h72v-261h61v-64h-61v-97h-69v97zM217 161v155l-109 -155h109z" />
    <glyph glyph-name="uni2085" unicode="&#x2085;" horiz-adv-x="342" 
d="M171 -6q-54 0 -90 23.5t-53 55.5l64 39q11 -22 30 -37.5t50 -15.5q30 0 51.5 20.5t21.5 54.5t-21 55.5t-53 21.5q-28 0 -46.5 -13t-29.5 -34l-63 30l31 228h232v-66h-176l-14 -104q14 10 31.5 16.5t40.5 6.5q28 0 53 -9t44 -27t30.5 -44.5t11.5 -60.5q0 -31 -11 -57
t-30 -44.5t-46 -28.5t-58 -10z" />
    <glyph glyph-name="uni2086" unicode="&#x2086;" horiz-adv-x="353" 
d="M177 -6q-33 0 -60.5 11.5t-47.5 31t-31 46t-11 56.5q0 29 8.5 57t23.5 50l113 176h82l-93 -142q7 2 14 3t15 1q28 0 53 -11t44 -30t29.5 -46t10.5 -58q0 -32 -11.5 -58.5t-31.5 -45.5t-47.5 -30t-59.5 -11zM176 58q16 0 31 6.5t26.5 17.5t18 26.5t6.5 32.5
q0 34 -24.5 57.5t-57.5 23.5q-34 0 -57.5 -23.5t-23.5 -58.5q0 -34 23.5 -58t57.5 -24z" />
    <glyph glyph-name="uni2087" unicode="&#x2087;" horiz-adv-x="327" 
d="M221 355h-190v67h264v-61l-155 -361h-75z" />
    <glyph glyph-name="uni2088" unicode="&#x2088;" horiz-adv-x="338" 
d="M169 -6q-32 0 -56.5 10.5t-42 28.5t-26.5 41.5t-9 49.5q0 32 15 57.5t39 41.5q-19 14 -30 35t-11 51q0 24 8.5 45.5t24.5 38t38.5 26t49.5 9.5t49 -9.5t38.5 -26t25.5 -38t9 -45.5q0 -29 -11.5 -50t-31.5 -35q23 -15 38.5 -40.5t15.5 -59.5q0 -26 -9 -49.5t-26 -41.5
t-42 -28.5t-56 -10.5zM168 58q30 0 47.5 19.5t17.5 46.5t-17 46.5t-48 19.5q-29 0 -46.5 -19.5t-17.5 -46.5t17.5 -46.5t46.5 -19.5zM168 255q24 0 38 15t14 39q0 22 -13.5 38t-38.5 16q-23 0 -36.5 -16t-13.5 -38q0 -24 13.5 -39t36.5 -15z" />
    <glyph glyph-name="uni2089" unicode="&#x2089;" horiz-adv-x="353" 
d="M192 143q-13 -4 -29 -4q-28 0 -53 10.5t-43.5 30t-29.5 45.5t-11 58t11.5 58.5t32 46t47.5 30t59 10.5t59.5 -11.5t47.5 -31t31.5 -46t11.5 -56.5q0 -29 -9 -57t-23 -50l-112 -176h-84zM177 200q34 0 57.5 24.5t23.5 58.5t-23.5 58t-57.5 24t-58 -24t-24 -59
q0 -34 24 -58t58 -24z" />
    <glyph glyph-name="uni208A" unicode="&#x208a;" horiz-adv-x="281" 
d="M34 241h78v76h58v-76h77v-59h-77v-78h-58v78h-78v59z" />
    <glyph glyph-name="uni208B" unicode="&#x208b;" horiz-adv-x="281" 
d="M34 241h213v-59h-213v59z" />
    <glyph glyph-name="uni208C" unicode="&#x208c;" horiz-adv-x="281" 
d="M34 287h213v-59h-213v59zM34 191h213v-59h-213v59z" />
    <glyph glyph-name="uni208D" unicode="&#x208d;" horiz-adv-x="270" 
d="M181 -59q-74 51 -114 118t-40 160q0 94 41.5 161t110.5 117l46 -57q-55 -38 -90.5 -90.5t-35.5 -130.5q0 -77 36 -129.5t91 -90.5l-45 -58v0z" />
    <glyph glyph-name="uni208E" unicode="&#x208e;" horiz-adv-x="270" 
d="M44 -1q55 38 91 90.5t36 129.5q0 78 -35.5 130.5t-90.5 90.5l46 57q34 -26 62.5 -55t48 -62.5t30.5 -73.5t11 -87q0 -93 -40 -160t-114 -118z" />
    <glyph glyph-name="uni20A1" unicode="&#x20a1;" horiz-adv-x="784" 
d="M126 -120l75 183q-70 52 -111 130t-41 172q0 78 29.5 146t80.5 119t119 80.5t146 29.5q29 0 52 -4l43 104h67l-49 -118q14 -5 27.5 -10t26.5 -12l58 140h67l-71 -173q63 -46 104 -115l-67 -39q-26 47 -67 82l-218 -530q7 -1 13.5 -1h13.5q96 0 163 45.5t103 118.5l69 -36
q-24 -45 -57.5 -82t-76.5 -64t-93.5 -41.5t-107.5 -14.5q-14 0 -28 1.5t-28 3.5l-47 -115h-66l52 128q-14 5 -27.5 10.5t-26.5 12.5l-62 -151h-65zM129 365q0 -69 27 -128t75 -101l216 529q-6 0 -11.5 0.5t-11.5 0.5q-63 0 -117 -24t-93.5 -65t-62 -95.5t-22.5 -116.5z
M281 100q26 -14 55 -23l227 554q-24 14 -54 22z" />
    <glyph glyph-name="uni20A2" unicode="&#x20a2;" horiz-adv-x="784" 
d="M424 -10q-78 0 -146 29.5t-119 80.5t-80.5 119t-29.5 146t29.5 146t80.5 119t119 80.5t146 29.5q52 0 100 -13.5t90 -38.5t76.5 -59.5t58.5 -76.5l-67 -39q-38 68 -105.5 110.5t-152.5 42.5q-63 0 -117 -24t-93.5 -65t-62 -95.5t-22.5 -116.5q0 -56 18.5 -106.5t51.5 -90
t78.5 -66t99.5 -35.5v343h77v-72q20 35 55.5 53.5t83.5 18.5h66v-72h-66q-76 0 -107 -40.5t-31 -128.5v-104q84 8 143 52t92 111l69 -36q-24 -45 -57.5 -82t-76.5 -64t-93.5 -41.5t-107.5 -14.5z" />
    <glyph glyph-name="franc" unicode="&#x20a3;" horiz-adv-x="535" 
d="M62 730h413v-74h-335v-171h335v-72h-335v-96h335v-72h-335v-245h-78v730z" />
    <glyph glyph-name="lira" unicode="&#x20a4;" horiz-adv-x="679" 
d="M71 490h94q-2 12 -3 25.5t-1 27.5q0 45 15 81.5t42 62t65.5 39.5t85.5 14q37 0 67.5 -7.5t55.5 -20.5t45 -31t37 -40l-63 -48q-24 38 -56.5 58.5t-86.5 20.5q-59 0 -94.5 -35t-35.5 -93q0 -26 5 -54h225v-63h-206q8 -19 16 -37t16 -35h174v-63h-146q11 -26 17.5 -54
t6.5 -58q0 -35 -11 -70q26 -23 53 -40t62 -17q49 0 73 28.5t24 99.5v20h79v-30q0 -91 -41 -136t-127 -45q-52 0 -87 19.5t-64 45.5q-23 -30 -56.5 -47.5t-77.5 -17.5q-70 0 -101 31.5t-31 77.5t32 76.5t89 30.5q38 0 66.5 -14t53.5 -34q0 5 0.5 9t0.5 9q0 32 -9.5 60
t-23.5 56h-179v63h145q-9 17 -18 34.5t-16 37.5h-111v63zM172 51q29 0 52.5 12.5t37.5 34.5q-22 20 -45 33.5t-52 13.5t-42.5 -12.5t-13.5 -34.5q0 -21 17 -34t46 -13z" />
    <glyph glyph-name="uni20A6" unicode="&#x20a6;" horiz-adv-x="825" 
d="M35 460h80v270h84l191 -270h242v270h78v-270h80v-61h-80v-76h80v-61h-80v-262h-80l-186 262h-251v-262h-78v262h-80v61h80v76h-80v61zM193 323h208l-54 76h-154v-76zM488 323h144v76h-198zM193 615v-155h110zM632 120v142h-101z" />
    <glyph glyph-name="peseta" unicode="&#x20a7;" horiz-adv-x="1279" 
d="M811 0q-55 0 -90.5 9t-56.5 30.5t-29.5 58.5t-8.5 93v239h-75q-8 -44 -30 -81.5t-56 -64.5t-78.5 -42t-96.5 -15h-150v-227h-78v730h228q57 0 104 -17.5t81.5 -48.5t55 -73t24.5 -91h71v118l78 43v-161h118v-70h-118v-238q0 -38 4.5 -61.5t17.5 -36.5t36 -17t60 -4h217
q57 0 85 21.5t28 56.5q0 19 -10.5 31t-28.5 20t-41.5 13t-48.5 10q-30 6 -60 14.5t-54.5 24t-39.5 40t-15 62.5q0 28 12.5 54t36.5 46t57.5 32.5t75.5 12.5q56 0 107 -19.5t83 -57.5l-57 -48q-26 29 -58.5 44t-74.5 15q-52 0 -79 -23t-27 -55q0 -19 11 -31t29 -20.5
t42 -13.5t50 -11q30 -6 60.5 -15t54.5 -24t39 -39.5t15 -61.5q0 -31 -10 -58.5t-33 -48t-60.5 -32.5t-91.5 -12h-225zM140 658v-358h145q45 0 80.5 14t60.5 38t38 56.5t13 70.5t-13 71t-38 57t-60.5 37.5t-80.5 13.5h-145z" />
    <glyph glyph-name="uni20A8" unicode="&#x20a8;" horiz-adv-x="985" 
d="M725 -12q-100 0 -176 26.5t-135.5 73t-106 110t-85.5 136.5h57q41 0 74 14t56 37t35 52.5t12 60.5q0 34 -12 63.5t-35 51t-55.5 33.5t-73.5 12h-140v-658h-78v730h224q54 0 99.5 -18t78.5 -49.5t51.5 -74t18.5 -90.5q0 -40 -13 -77t-37 -67t-59 -51t-79 -29
q31 -46 68 -85.5t83 -69t101.5 -46.5t124.5 -17q73 0 105.5 26.5t32.5 61.5q0 20 -11.5 32.5t-30 21t-43 14t-50.5 11.5q-30 7 -59.5 16.5t-53.5 25.5t-38.5 40t-14.5 61q0 28 12.5 54t36.5 46t57.5 32.5t75.5 12.5q56 0 107 -19.5t83 -57.5l-57 -48q-26 29 -58.5 44
t-74.5 15q-52 0 -79 -23t-27 -55q0 -19 11 -31.5t29 -21t41.5 -14.5t49.5 -12q30 -7 60.5 -16.5t55 -25t39.5 -40.5t15 -62q0 -29 -11 -56.5t-36 -50t-65.5 -36t-99.5 -13.5z" />
    <glyph glyph-name="uni20A9" unicode="&#x20a9;" horiz-adv-x="1100" 
d="M35 460h97l-79 270h83l77 -270h209l90 270h75l88 -270h215l81 270h80l-83 -270h97v-61h-116l-24 -76h140v-61h-159l-80 -262h-79l-85 262h-228l-87 -262h-80l-77 262h-155v61h137l-22 76h-115v61zM454 323h188l-25 76h-138zM720 323h129l23 76h-177zM252 323h125l25 76
h-171zM499 460h98l-49 148zM787 119l43 143h-90zM310 121l47 141h-87z" />
    <glyph glyph-name="uni20AA" unicode="&#x20aa;" horiz-adv-x="717" 
d="M62 730h198q55 0 96.5 -13.5t70 -43t43 -76t14.5 -113.5v-255q0 -45 -16.5 -63.5t-61.5 -18.5v337q0 93 -33.5 133t-109.5 40h-123v-657h-78v730zM233 570q45 0 61.5 -18.5t16.5 -63.5v-415h127q76 0 107.5 40t31.5 133v484h78v-484q0 -67 -14 -113.5t-41.5 -76
t-68.5 -43t-96 -13.5h-202v570z" />
    <glyph glyph-name="Euro" unicode="&#x20ac;" 
d="M29 505h63q0 51 17 94t47.5 74.5t73 49t94.5 17.5q56 0 100.5 -19.5t74.5 -54.5l-53 -49q-40 52 -121 52q-77 0 -115.5 -45t-39.5 -119h260l-11 -62h-249v-156h224l-10 -62h-214v-3q0 -75 37.5 -118t115.5 -43q45 0 76.5 15t50.5 42l60 -49q-29 -38 -76 -58.5t-110 -20.5
q-114 0 -173 63t-59 168v4h-63v62h63v156h-63v62z" />
    <glyph glyph-name="uni20AE" unicode="&#x20ae;" horiz-adv-x="613" 
d="M130 402l138 56v200h-220v72h517v-72h-219v-168l137 57v-61l-137 -57v-84l137 57v-61l-137 -57v-284h-78v252l-138 -56v61l138 56v84l-138 -56v61z" />
    <glyph glyph-name="uni20B1" unicode="&#x20b1;" horiz-adv-x="715" 
d="M35 577h80v153h228q90 0 154.5 -42t92.5 -111h90v-61h-74q3 -18 3 -37q0 -21 -3 -39h74v-61h-90q-29 -69 -93 -110.5t-154 -41.5h-150v-227h-78v379h-80v61h80v76h-80v61zM530 479q0 9 -1 18.5t-3 18.5h-333v-76h333q2 9 3 18.5t1 20.5zM193 658v-81h310q-23 37 -65.5 59
t-99.5 22h-145zM338 300q57 0 98.5 21.5t64.5 57.5h-308v-79h145z" />
    <glyph glyph-name="published" unicode="&#x2117;" horiz-adv-x="847" 
d="M424 -125q-78 0 -146 29.5t-119 80.5t-80.5 119t-29.5 146t29.5 146t80.5 119t119 80.5t146 29.5t146 -29.5t119 -80.5t80.5 -119t29.5 -146t-29.5 -146t-80.5 -119t-119 -80.5t-146 -29.5zM424 -56q64 0 119 24t95 66t63 97.5t23 118.5t-23 118.5t-63 97.5t-95 66
t-119 24t-119 -24t-95 -66t-63 -97.5t-23 -118.5t23 -118.5t63 -97.5t95 -66t119 -24zM292 445h166q31 0 56.5 -10.5t44 -29t29 -43.5t10.5 -53q0 -29 -9 -55t-27 -46t-43.5 -31.5t-58.5 -11.5h-95v-105h-73v385zM365 382v-151h84q35 0 55.5 23t20.5 55t-21.5 52.5
t-54.5 20.5h-84z" />
    <glyph glyph-name="servicemark" unicode="&#x2120;" horiz-adv-x="651" 
d="M278 730h53l106 -141l111 141h49v-290h-57v196l-103 -127l-103 128v-197h-56v290zM132 433q-71 0 -105 49l51 37q10 -17 22 -26t31 -9q17 0 28.5 11t11.5 29q0 13 -10 20.5t-24.5 13t-31.5 11t-31.5 15.5t-24.5 26t-10 42q0 35 26 56t64 21q32 0 54 -11t39 -31l-51 -33
q-15 24 -44 24q-17 0 -26 -8t-9 -19q0 -12 10 -19t25 -12.5t33 -11.5t33 -16t25 -26t10 -42q0 -38 -26 -64.5t-70 -26.5z" />
    <glyph glyph-name="trademark" unicode="&#x2122;" horiz-adv-x="683" 
d="M310 730h53l106 -141l111 141h49v-290h-57v196l-103 -127l-103 128v-197h-56v290zM133 678h-92v52h239v-52h-91v-238h-56v238z" />
    <glyph glyph-name="uni2153" unicode="&#x2153;" horiz-adv-x="829" 
d="M636 730h91l-527 -730h-91zM661 -6q-41 0 -75 14t-61 46l60 45q29 -41 76 -41q31 0 50.5 17t19.5 46t-22.5 46t-57.5 17h-43v66h43q36 0 55 17t19 43t-18.5 41.5t-49.5 15.5q-26 0 -42.5 -11.5t-27.5 -31.5l-59 33q18 32 52 51.5t77 19.5q63 0 99 -31.5t36 -85.5
q0 -30 -13.5 -53.5t-37.5 -38.5q28 -15 44 -39.5t16 -58.5q0 -55 -36.5 -91t-103.5 -36zM32 375h84v245q-9 -14 -29 -23.5t-40 -9.5h-7v74h3q21 0 35.5 6.5t23 16.5t12.5 22.5t4 23.5h68v-355h80v-67h-234v67z" />
    <glyph glyph-name="uni2154" unicode="&#x2154;" horiz-adv-x="829" 
d="M636 730h91l-527 -730h-91zM35 374q0 27 10 48.5t26 39.5t36 33.5t40 29.5q33 23 59 44.5t26 49.5q0 23 -16.5 39.5t-48.5 16.5q-29 0 -48 -17t-31 -43l-60 30q19 42 54 66.5t85 24.5q31 0 56.5 -9.5t43 -25.5t27 -37.5t9.5 -45.5q0 -25 -9.5 -45t-24.5 -37t-34.5 -31.5
t-38.5 -27.5q-17 -12 -33.5 -23.5t-29 -23.5t-20 -25.5t-7.5 -29.5h198v-67h-269v66zM661 -6q-41 0 -75 14t-61 46l60 45q29 -41 76 -41q31 0 50.5 17t19.5 46t-22.5 46t-57.5 17h-43v66h43q36 0 55 17t19 43t-18.5 41.5t-49.5 15.5q-26 0 -42.5 -11.5t-27.5 -31.5l-59 33
q18 32 52 51.5t77 19.5q63 0 99 -31.5t36 -85.5q0 -30 -13.5 -53.5t-37.5 -38.5q28 -15 44 -39.5t16 -58.5q0 -55 -36.5 -91t-103.5 -36z" />
    <glyph glyph-name="uni2155" unicode="&#x2155;" horiz-adv-x="850" 
d="M636 730h91l-527 -730h-91zM679 -6q-54 0 -90 23.5t-53 55.5l64 39q11 -22 30 -37.5t50 -15.5q30 0 51.5 20.5t21.5 54.5t-21 55.5t-53 21.5q-28 0 -46.5 -13t-29.5 -34l-63 30l31 228h232v-66h-176l-14 -104q14 10 31.5 16.5t40.5 6.5q28 0 53 -9t44 -27t30.5 -44.5
t11.5 -60.5q0 -31 -11 -57t-30 -44.5t-46 -28.5t-58 -10zM32 375h84v245q-9 -14 -29 -23.5t-40 -9.5h-7v74h3q21 0 35.5 6.5t23 16.5t12.5 22.5t4 23.5h68v-355h80v-67h-234v67z" />
    <glyph glyph-name="uni2156" unicode="&#x2156;" horiz-adv-x="850" 
d="M636 730h91l-527 -730h-91zM679 -6q-54 0 -90 23.5t-53 55.5l64 39q11 -22 30 -37.5t50 -15.5q30 0 51.5 20.5t21.5 54.5t-21 55.5t-53 21.5q-28 0 -46.5 -13t-29.5 -34l-63 30l31 228h232v-66h-176l-14 -104q14 10 31.5 16.5t40.5 6.5q28 0 53 -9t44 -27t30.5 -44.5
t11.5 -60.5q0 -31 -11 -57t-30 -44.5t-46 -28.5t-58 -10zM35 374q0 27 10 48.5t26 39.5t36 33.5t40 29.5q33 23 59 44.5t26 49.5q0 23 -16.5 39.5t-48.5 16.5q-29 0 -48 -17t-31 -43l-60 30q19 42 54 66.5t85 24.5q31 0 56.5 -9.5t43 -25.5t27 -37.5t9.5 -45.5
q0 -25 -9.5 -45t-24.5 -37t-34.5 -31.5t-38.5 -27.5q-17 -12 -33.5 -23.5t-29 -23.5t-20 -25.5t-7.5 -29.5h198v-67h-269v66z" />
    <glyph glyph-name="uni2157" unicode="&#x2157;" horiz-adv-x="850" 
d="M636 730h91l-527 -730h-91zM679 -6q-54 0 -90 23.5t-53 55.5l64 39q11 -22 30 -37.5t50 -15.5q30 0 51.5 20.5t21.5 54.5t-21 55.5t-53 21.5q-28 0 -46.5 -13t-29.5 -34l-63 30l31 228h232v-66h-176l-14 -104q14 10 31.5 16.5t40.5 6.5q28 0 53 -9t44 -27t30.5 -44.5
t11.5 -60.5q0 -31 -11 -57t-30 -44.5t-46 -28.5t-58 -10zM153 302q-41 0 -75 14t-61 46l60 45q29 -41 76 -41q31 0 50.5 17t19.5 46t-22.5 46t-57.5 17h-43v66h43q36 0 55 17t19 43t-18.5 41.5t-49.5 15.5q-26 0 -42.5 -11.5t-27.5 -31.5l-59 33q18 32 52 51.5t77 19.5
q63 0 99 -31.5t36 -85.5q0 -30 -13.5 -53.5t-37.5 -38.5q28 -15 44 -39.5t16 -58.5q0 -55 -36.5 -91t-103.5 -36z" />
    <glyph glyph-name="uni2158" unicode="&#x2158;" horiz-adv-x="850" 
d="M217 405h-185v64l182 261h72v-261h61v-64h-61v-97h-69v97zM636 730h91l-527 -730h-91zM679 -6q-54 0 -90 23.5t-53 55.5l64 39q11 -22 30 -37.5t50 -15.5q30 0 51.5 20.5t21.5 54.5t-21 55.5t-53 21.5q-28 0 -46.5 -13t-29.5 -34l-63 30l31 228h232v-66h-176l-14 -104
q14 10 31.5 16.5t40.5 6.5q28 0 53 -9t44 -27t30.5 -44.5t11.5 -60.5q0 -31 -11 -57t-30 -44.5t-46 -28.5t-58 -10zM217 469v155l-109 -155h109z" />
    <glyph glyph-name="uni2159" unicode="&#x2159;" horiz-adv-x="791" 
d="M615 -6q-33 0 -60.5 11.5t-47.5 31t-31 46t-11 56.5q0 29 8.5 57t23.5 50l113 176h82l-93 -142q7 2 14 3t15 1q28 0 53 -11t44 -30t29.5 -46t10.5 -58q0 -32 -11.5 -58.5t-31.5 -45.5t-47.5 -30t-59.5 -11zM636 730h91l-527 -730h-91zM32 375h84v245q-9 -14 -29 -23.5
t-40 -9.5h-7v74h3q21 0 35.5 6.5t23 16.5t12.5 22.5t4 23.5h68v-355h80v-67h-234v67zM614 58q16 0 31 6.5t26.5 17.5t18 26.5t6.5 32.5q0 34 -24.5 57.5t-57.5 23.5q-34 0 -57.5 -23.5t-23.5 -58.5q0 -34 23.5 -58t57.5 -24z" />
    <glyph glyph-name="uni215A" unicode="&#x215a;" horiz-adv-x="791" 
d="M615 -6q-33 0 -60.5 11.5t-47.5 31t-31 46t-11 56.5q0 29 8.5 57t23.5 50l113 176h82l-93 -142q7 2 14 3t15 1q28 0 53 -11t44 -30t29.5 -46t10.5 -58q0 -32 -11.5 -58.5t-31.5 -45.5t-47.5 -30t-59.5 -11zM636 730h91l-527 -730h-91zM171 302q-54 0 -90 23.5t-53 55.5
l64 39q11 -22 30 -37.5t50 -15.5q30 0 51.5 20.5t21.5 54.5t-21 55.5t-53 21.5q-28 0 -46.5 -13t-29.5 -34l-63 30l31 228h232v-66h-176l-14 -104q14 10 31.5 16.5t40.5 6.5q28 0 53 -9t44 -27t30.5 -44.5t11.5 -60.5q0 -31 -11 -57t-30 -44.5t-46 -28.5t-58 -10zM614 58
q16 0 31 6.5t26.5 17.5t18 26.5t6.5 32.5q0 34 -24.5 57.5t-57.5 23.5q-34 0 -57.5 -23.5t-23.5 -58.5q0 -34 23.5 -58t57.5 -24z" />
    <glyph glyph-name="uni215B" unicode="&#x215b;" horiz-adv-x="846" 
d="M677 -6q-32 0 -56.5 10.5t-42 28.5t-26.5 41.5t-9 49.5q0 32 15 57.5t39 41.5q-19 14 -30 35t-11 51q0 24 8.5 45.5t24.5 38t38.5 26t49.5 9.5t49 -9.5t38.5 -26t25.5 -38t9 -45.5q0 -29 -11.5 -50t-31.5 -35q23 -15 38.5 -40.5t15.5 -59.5q0 -26 -9 -49.5t-26 -41.5
t-42 -28.5t-56 -10.5zM636 730h91l-527 -730h-91zM32 375h84v245q-9 -14 -29 -23.5t-40 -9.5h-7v74h3q21 0 35.5 6.5t23 16.5t12.5 22.5t4 23.5h68v-355h80v-67h-234v67zM676 58q30 0 47.5 19.5t17.5 46.5t-17 46.5t-48 19.5q-29 0 -46.5 -19.5t-17.5 -46.5t17.5 -46.5
t46.5 -19.5zM676 255q24 0 38 15t14 39q0 22 -13.5 38t-38.5 16q-23 0 -36.5 -16t-13.5 -38q0 -24 13.5 -39t36.5 -15z" />
    <glyph glyph-name="uni215C" unicode="&#x215c;" horiz-adv-x="846" 
d="M677 -6q-32 0 -56.5 10.5t-42 28.5t-26.5 41.5t-9 49.5q0 32 15 57.5t39 41.5q-19 14 -30 35t-11 51q0 24 8.5 45.5t24.5 38t38.5 26t49.5 9.5t49 -9.5t38.5 -26t25.5 -38t9 -45.5q0 -29 -11.5 -50t-31.5 -35q23 -15 38.5 -40.5t15.5 -59.5q0 -26 -9 -49.5t-26 -41.5
t-42 -28.5t-56 -10.5zM636 730h91l-527 -730h-91zM153 302q-41 0 -75 14t-61 46l60 45q29 -41 76 -41q31 0 50.5 17t19.5 46t-22.5 46t-57.5 17h-43v66h43q36 0 55 17t19 43t-18.5 41.5t-49.5 15.5q-26 0 -42.5 -11.5t-27.5 -31.5l-59 33q18 32 52 51.5t77 19.5
q63 0 99 -31.5t36 -85.5q0 -30 -13.5 -53.5t-37.5 -38.5q28 -15 44 -39.5t16 -58.5q0 -55 -36.5 -91t-103.5 -36zM676 58q30 0 47.5 19.5t17.5 46.5t-17 46.5t-48 19.5q-29 0 -46.5 -19.5t-17.5 -46.5t17.5 -46.5t46.5 -19.5zM676 255q24 0 38 15t14 39q0 22 -13.5 38
t-38.5 16q-23 0 -36.5 -16t-13.5 -38q0 -24 13.5 -39t36.5 -15z" />
    <glyph glyph-name="uni215D" unicode="&#x215d;" horiz-adv-x="846" 
d="M677 -6q-32 0 -56.5 10.5t-42 28.5t-26.5 41.5t-9 49.5q0 32 15 57.5t39 41.5q-19 14 -30 35t-11 51q0 24 8.5 45.5t24.5 38t38.5 26t49.5 9.5t49 -9.5t38.5 -26t25.5 -38t9 -45.5q0 -29 -11.5 -50t-31.5 -35q23 -15 38.5 -40.5t15.5 -59.5q0 -26 -9 -49.5t-26 -41.5
t-42 -28.5t-56 -10.5zM636 730h91l-527 -730h-91zM171 302q-54 0 -90 23.5t-53 55.5l64 39q11 -22 30 -37.5t50 -15.5q30 0 51.5 20.5t21.5 54.5t-21 55.5t-53 21.5q-28 0 -46.5 -13t-29.5 -34l-63 30l31 228h232v-66h-176l-14 -104q14 10 31.5 16.5t40.5 6.5q28 0 53 -9
t44 -27t30.5 -44.5t11.5 -60.5q0 -31 -11 -57t-30 -44.5t-46 -28.5t-58 -10zM676 58q30 0 47.5 19.5t17.5 46.5t-17 46.5t-48 19.5q-29 0 -46.5 -19.5t-17.5 -46.5t17.5 -46.5t46.5 -19.5zM676 255q24 0 38 15t14 39q0 22 -13.5 38t-38.5 16q-23 0 -36.5 -16t-13.5 -38
q0 -24 13.5 -39t36.5 -15z" />
    <glyph glyph-name="uni215E" unicode="&#x215e;" horiz-adv-x="766" 
d="M597 -6q-32 0 -56.5 10.5t-42 28.5t-26.5 41.5t-9 49.5q0 32 15 57.5t39 41.5q-19 14 -30 35t-11 51q0 24 8.5 45.5t24.5 38t38.5 26t49.5 9.5t49 -9.5t38.5 -26t25.5 -38t9 -45.5q0 -29 -11.5 -50t-31.5 -35q23 -15 38.5 -40.5t15.5 -59.5q0 -26 -9 -49.5t-26 -41.5
t-42 -28.5t-56 -10.5zM556 730h91l-527 -730h-91zM221 663h-190v67h264v-61l-155 -361h-75zM596 58q30 0 47.5 19.5t17.5 46.5t-17 46.5t-48 19.5q-29 0 -46.5 -19.5t-17.5 -46.5t17.5 -46.5t46.5 -19.5zM596 255q24 0 38 15t14 39q0 22 -13.5 38t-38.5 16q-23 0 -36.5 -16
t-13.5 -38q0 -24 13.5 -39t36.5 -15z" />
    <glyph glyph-name="uni215F" unicode="&#x215f;" horiz-adv-x="752" 
d="M636 730h91l-527 -730h-91zM32 375h84v245q-9 -14 -29 -23.5t-40 -9.5h-7v74h3q21 0 35.5 6.5t23 16.5t12.5 22.5t4 23.5h68v-355h80v-67h-234v67z" />
    <glyph glyph-name="arrowleft" unicode="&#x2190;" horiz-adv-x="896" 
d="M258 117q-17 32 -39.5 65t-49.5 63t-57.5 55.5t-61.5 43.5v47q31 18 61.5 43.5t57.5 55.5t49.5 63t39.5 65l65 -43q-14 -23 -32 -47.5t-38.5 -47t-42 -42t-40.5 -33.5h654v-75h-654q19 -15 40.5 -34.5t42 -42t38.5 -46.5t32 -47l-65 -43v0z" />
    <glyph glyph-name="arrowup" unicode="&#x2191;" horiz-adv-x="896" 
d="M398 631q-15 -19 -34.5 -40t-41.5 -41t-45.5 -38t-46.5 -31l-43 65q32 16 65 39t63 50t55.5 57t43.5 62h47q18 -32 43.5 -62t55.5 -57t63 -50t65 -39l-43 -65q-23 13 -47 31.5t-46.5 38.5t-42 41t-33.5 41v-633h-78v631z" />
    <glyph glyph-name="arrowright" unicode="&#x2192;" horiz-adv-x="896" 
d="M551 160q13 23 31.5 47t39 46.5t41.5 42.5t41 34h-654v75h653q-20 15 -41 34.5t-41 41.5t-38.5 46t-31.5 47l66 44q16 -32 38.5 -65t49.5 -63.5t57 -56t62 -43.5v-46q-32 -18 -62 -43.5t-57 -55.5t-50 -63t-40 -65z" />
    <glyph glyph-name="arrowdown" unicode="&#x2193;" horiz-adv-x="896" 
d="M413 -24q-18 31 -43.5 61.5t-55.5 57.5t-63 49.5t-65 39.5l43 65q22 -13 45.5 -31t45.5 -37.5t41.5 -40.5t34.5 -40v630h78v-634q14 19 33.5 40.5t42 42t47 38.5t47.5 32l43 -65q-32 -17 -65 -39.5t-63 -49.5t-55.5 -57.5t-43.5 -61.5h-47v0z" />
    <glyph glyph-name="uni2196" unicode="&#x2196;" horiz-adv-x="896" 
d="M222 528q3 -24 4.5 -52.5t0 -58.5t-5.5 -60t-11 -56l-76 16q11 34 18 73.5t9 80t-1 79.5t-13 74l33 34q35 -10 74.5 -13.5t80 -1t80 9.5t73.5 18l15 -76q-26 -7 -56.5 -11t-61 -5.5t-59 -0.5t-52.5 5l464 -463l-54 -53z" />
    <glyph glyph-name="uni2197" unicode="&#x2197;" horiz-adv-x="896" 
d="M137 120l461 461q-24 -3 -52.5 -4.5t-58.5 0t-60 6t-56 11.5l16 76q34 -11 73.5 -18t80 -9t79.5 1t74 13l34 -33q-10 -35 -13.5 -74.5t-1 -80t9.5 -80t18 -73.5l-76 -15q-7 26 -11 56t-5.5 60.5t-0.5 59.5t5 53l-463 -464z" />
    <glyph glyph-name="uni2198" unicode="&#x2198;" horiz-adv-x="896" 
d="M694 76q-35 10 -74.5 13.5t-80 1t-80 -9.5t-73.5 -18l-15 76q26 7 56 11t60.5 5.5t59.5 0t53 -4.5l-464 463l54 53l461 -462q-3 24 -4.5 53t0 59t6 60t11.5 56l76 -16q-11 -34 -18 -73.5t-9 -80t1 -80t13 -73.5l-33 -34v0z" />
    <glyph glyph-name="uni2199" unicode="&#x2199;" horiz-adv-x="896" 
d="M487 64q-34 11 -73.5 18t-80 9t-80 -1t-73.5 -13l-34 33q10 35 13.5 74.5t1 80t-9.5 80t-18 73.5l76 15q7 -26 11 -56.5t5.5 -61t0 -59t-4.5 -52.5l463 464l53 -54l-462 -462q24 3 53 4.5t59 0t60 -5.5t56 -11l-16 -76v0z" />
    <glyph glyph-name="partialdiff" unicode="&#x2202;" horiz-adv-x="604" 
d="M301 -5q-52 0 -97.5 18.5t-79 51t-53 77t-19.5 97.5q0 52 19 97t52 78t76.5 51.5t92.5 18.5q52 0 85 -13.5t56 -34.5q-38 67 -112 138.5t-194 155.5h119q159 -124 232.5 -245t73.5 -246q0 -51 -19 -95.5t-53 -77.5t-79.5 -52t-99.5 -19zM303 66q35 0 66 13.5t54.5 37
t37 55t13.5 67.5q0 35 -13 66.5t-36.5 55t-54.5 37.5t-67 14q-35 0 -66.5 -13.5t-55 -37t-37.5 -55t-14 -67.5t14 -67.5t37.5 -55t55 -37t66.5 -13.5z" />
    <glyph glyph-name="Delta" unicode="&#x2206;" horiz-adv-x="897" 
d="M20 0l429 742l428 -742h-857zM153 75h592l-296 514z" />
    <glyph glyph-name="product" unicode="&#x220f;" horiz-adv-x="751" 
d="M43 730h666v-76h-132v-654h-78v654h-247v-654h-78v654h-131v76z" />
    <glyph glyph-name="summation" unicode="&#x2211;" horiz-adv-x="563" 
d="M35 80l262 299l-252 272v79h483v-74h-385l254 -278l-267 -303h398v-75h-493v80z" />
    <glyph glyph-name="minus" unicode="&#x2212;" horiz-adv-x="473" 
d="M52 399h370v-67h-370v67z" />
    <glyph glyph-name="radical" unicode="&#x221a;" horiz-adv-x="789" 
d="M141 421h-96v79h152l156 -418l298 648h86l-341 -730h-93z" />
    <glyph glyph-name="infinity" unicode="&#x221e;" horiz-adv-x="940" 
d="M251 214q-35 0 -66.5 13.5t-54.5 36.5t-36.5 54t-13.5 66t13.5 66t36.5 54t54.5 36.5t66.5 13.5q30 0 58.5 -10t56 -26.5t53.5 -38t52 -44.5q25 23 51.5 44.5t53.5 38t55.5 26.5t57.5 10q35 0 66 -13.5t54 -36.5t36.5 -54t13.5 -66t-13.5 -66t-36.5 -54t-54 -36.5
t-66 -13.5q-29 0 -57 10.5t-55.5 27.5t-54 39.5t-52.5 46.5q-26 -24 -52.5 -46.5t-54 -39.5t-55.5 -27.5t-57 -10.5zM252 283q39 0 80.5 30t86.5 72q-44 40 -85.5 69t-81.5 29q-20 0 -38.5 -8t-32 -22t-21.5 -32t-8 -38t8 -38t21.5 -32t32 -22t38.5 -8zM688 285q20 0 38.5 8
t32 22t21 32t7.5 38t-8 38t-21.5 32t-31.5 22t-38 8q-40 0 -80.5 -29t-84.5 -69q44 -41 85.5 -71.5t79.5 -30.5z" />
    <glyph glyph-name="integral" unicode="&#x222b;" horiz-adv-x="352" 
d="M-1 -121q40 0 63.5 4.5t36 18t16 37t3.5 61.5v539q0 56 9 93t31 58.5t58.5 30.5t91.5 9h7v-71q-40 0 -63.5 -4.5t-36 -17.5t-16 -37t-3.5 -62v-538q0 -56 -9 -93t-31 -59t-58.5 -31t-91.5 -9h-7v71z" />
    <glyph glyph-name="approxequal" unicode="&#x2248;" horiz-adv-x="460" 
d="M45 474q22 11 44 18.5t53 7.5q22 0 45.5 -6t46 -13t44 -13t41.5 -6q29 0 49.5 7t46.5 18v-69q-21 -12 -42 -18.5t-54 -6.5q-21 0 -44 6t-46.5 13t-45.5 13t-41 6q-30 0 -52 -7.5t-45 -18.5v69zM45 307q22 11 42.5 19t51.5 8q22 0 46 -6t48 -12.5t46 -12.5t42 -6
q15 0 26.5 1.5t22.5 4.5t21.5 7t23.5 10v-69q-21 -12 -41 -17.5t-53 -5.5q-21 0 -45 6t-48 12.5t-47 12.5t-42 6q-30 0 -50.5 -8t-43.5 -19v69z" />
    <glyph glyph-name="notequal" unicode="&#x2260;" horiz-adv-x="473" 
d="M323 478h99v-67h-132l-47 -96h179v-66h-211l-31 -65h-71l31 65h-88v66h120l47 96h-167v67h200l33 68h71z" />
    <glyph glyph-name="equivalence" unicode="&#x2261;" horiz-adv-x="473" 
d="M52 396h370v-66h-370v66zM52 234h370v-65h-370v65zM52 559h370v-67h-370v67z" />
    <glyph glyph-name="lessequal" unicode="&#x2264;" horiz-adv-x="473" 
d="M51 412v67l370 139v-69l-288 -104l288 -106v-69zM51 226h370v-67h-370v67z" />
    <glyph glyph-name="greaterequal" unicode="&#x2265;" horiz-adv-x="473" 
d="M51 339l288 106l-288 104v69l370 -139v-67l-370 -142v69zM51 226h370v-67h-370v67z" />
    <glyph glyph-name="squaremultiply" unicode="&#x22a0;" horiz-adv-x="926" 
d="M100 730h726v-730h-726v730zM178 75h570v580h-570v-580zM276 216l143 149l-145 152l46 46l144 -151l144 151l46 -46l-145 -152l141 -147l-46 -46l-140 146l-142 -148z" />
    <glyph glyph-name="house" unicode="&#x2302;" horiz-adv-x="874" 
d="M100 0v427l337 323l337 -323v-427h-674z" />
    <glyph glyph-name="blacksquare" unicode="&#xe740;" horiz-adv-x="926" 
d="M100 730h726v-730h-726v730z" />
    <glyph glyph-name="blacksquare" unicode="&#x25a0;" horiz-adv-x="926" 
d="M100 730h726v-730h-726v730z" />
    <glyph glyph-name="whitesquare" unicode="&#x25a1;" horiz-adv-x="926" 
d="M100 730h726v-730h-726v730zM178 75h570v580h-570v-580z" />
    <glyph glyph-name="blacksmallsquare" unicode="&#x25aa;" horiz-adv-x="700" 
d="M100 500h500v-500h-500v500z" />
    <glyph glyph-name="whitesmallsquare" unicode="&#x25ab;" horiz-adv-x="700" 
d="M100 500h500v-500h-500v500zM178 75h344v350h-344v-350z" />
    <glyph glyph-name="triagup" unicode="&#x25b2;" horiz-adv-x="897" 
d="M20 0l429 742l428 -742h-857z" />
    <glyph glyph-name="triagrt" unicode="&#x25ba;" horiz-adv-x="897" 
d="M100 800l742 -428l-742 -429v857z" />
    <glyph glyph-name="triagdn" unicode="&#x25bc;" horiz-adv-x="897" 
d="M877 730l-428 -742l-429 742h857z" />
    <glyph glyph-name="triaglf" unicode="&#x25c4;" horiz-adv-x="897" 
d="M797 -57l-742 429l742 428v-857z" />
    <glyph glyph-name="lozenge" unicode="&#x25ca;" horiz-adv-x="843" 
d="M33 366l380 380l382 -382l-380 -380zM415 83l282 282l-284 283l-282 -282z" />
    <glyph glyph-name="whitecircle" unicode="&#x25ef;" horiz-adv-x="927" 
d="M464 -10q-78 0 -146 29.5t-119 80.5t-80.5 119t-29.5 146t29.5 146t80.5 119t119 80.5t146 29.5t146 -29.5t119 -80.5t80.5 -119t29.5 -146t-29.5 -146t-80.5 -119t-119 -80.5t-146 -29.5zM464 64q63 0 117 24t93.5 65t62 95.5t22.5 116.5t-22.5 116.5t-62 95.5t-93.5 65
t-117 24t-117 -24t-93.5 -65t-62 -95.5t-22.5 -116.5t22.5 -116.5t62 -95.5t93.5 -65t117 -24z" />
    <glyph glyph-name="whitecircle" unicode="&#x25cb;" horiz-adv-x="927" 
d="M464 -10q-78 0 -146 29.5t-119 80.5t-80.5 119t-29.5 146t29.5 146t80.5 119t119 80.5t146 29.5t146 -29.5t119 -80.5t80.5 -119t29.5 -146t-29.5 -146t-80.5 -119t-119 -80.5t-146 -29.5zM464 64q63 0 117 24t93.5 65t62 95.5t22.5 116.5t-22.5 116.5t-62 95.5t-93.5 65
t-117 24t-117 -24t-93.5 -65t-62 -95.5t-22.5 -116.5t22.5 -116.5t62 -95.5t93.5 -65t117 -24z" />
    <glyph glyph-name="bullseye" unicode="&#x25ce;" horiz-adv-x="927" 
d="M464 -10q-78 0 -146 29.5t-119 80.5t-80.5 119t-29.5 146t29.5 146t80.5 119t119 80.5t146 29.5t146 -29.5t119 -80.5t80.5 -119t29.5 -146t-29.5 -146t-80.5 -119t-119 -80.5t-146 -29.5zM464 64q63 0 117 24t93.5 65t62 95.5t22.5 116.5t-22.5 116.5t-62 95.5t-93.5 65
t-117 24t-117 -24t-93.5 -65t-62 -95.5t-22.5 -116.5t22.5 -116.5t62 -95.5t93.5 -65t117 -24zM464 140q-47 0 -87.5 17t-70.5 47t-47.5 71t-17.5 89t17.5 89t47.5 71t70.5 47t87.5 17q46 0 87 -17t71.5 -47t48 -71t17.5 -89t-17.5 -89t-48 -71t-71.5 -47t-87 -17zM464 212
q31 0 58 11.5t47 32t31.5 48.5t11.5 60t-11.5 60t-31.5 48.5t-47 32t-58 11.5t-58 -11.5t-46.5 -32t-31 -48.5t-11.5 -60t11.5 -60t31 -48.5t46.5 -32t58 -11.5zM464 288q-32 0 -53.5 22.5t-21.5 54.5t21.5 54.5t53.5 22.5t53.5 -22.5t21.5 -54.5t-21.5 -54.5t-53.5 -22.5z
" />
    <glyph glyph-name="blackcircle" unicode="&#x25cf;" horiz-adv-x="927" 
d="M464 -10q-78 0 -146 29.5t-119 80.5t-80.5 119t-29.5 146t29.5 146t80.5 119t119 80.5t146 29.5t146 -29.5t119 -80.5t80.5 -119t29.5 -146t-29.5 -146t-80.5 -119t-119 -80.5t-146 -29.5z" />
    <glyph glyph-name="uni25E2" unicode="&#x25e2;" horiz-adv-x="897" 
d="M267 -73l-222 828l828 -222z" />
    <glyph glyph-name="uni25E3" unicode="&#x25e3;" horiz-adv-x="897" 
d="M26 533l828 222l-222 -828z" />
    <glyph glyph-name="uni25E4" unicode="&#x25e4;" horiz-adv-x="897" 
d="M29 168l606 606l222 -828z" />
    <glyph glyph-name="uni25E5" unicode="&#x25e5;" horiz-adv-x="897" 
d="M44 -58l223 828l605 -607z" />
    <glyph glyph-name="uni2605" unicode="&#x2605;" horiz-adv-x="900" 
d="M634 85l-187 135l-186 -135l72 219l-186 135l229 -1l72 218l71 -218l230 -1l-187 -134z" />
    <glyph glyph-name="ballotboxwithx" unicode="&#x2612;" horiz-adv-x="700" 
d="M100 500h500v-500h-500v500zM178 75h344v350h-344v-350zM348 294l87 90l46 -46l-86 -89l90 -87l-46 -46l-90 86l-85 -89l-46 46l85 88l-89 86l46 46z" />
    <glyph glyph-name="uni263C" unicode="&#x263c;" horiz-adv-x="928" 
d="M287 365q0 36 14 67.5t37.5 55t55 37.5t67.5 14t67.5 -14t55 -37.5t37.5 -55t14 -67.5t-14 -67.5t-37.5 -55t-55 -37.5t-67.5 -14t-67.5 14t-55 37.5t-37.5 55t-14 67.5zM434 719h54l-17 -142h-20zM488 13h-54l17 142h20zM108 339v54l142 -17v-20zM814 393v-54l-142 17
v20zM140 519l28 47l115 -87l-10 -15zM782 213l-28 -47l-115 87l10 15zM261 659l47 28l55 -133l-15 -10zM661 73l-47 -28l-55 133l15 10zM614 687l47 -28l-87 -115l-15 10zM308 45l-47 28l87 115l15 -10zM752 566l30 -46l-133 -56l-10 16zM170 166l-30 46l133 56l10 -16z" />
    <glyph glyph-name="uni263E" unicode="&#x263e;" horiz-adv-x="787" 
d="M534 616q-50 0 -93.5 -20t-75.5 -54t-51 -79.5t-19 -97.5t19 -97.5t51 -79.5t75.5 -54t93.5 -20q18 0 36 3.5t35 8.5q-38 -27 -83.5 -42t-94.5 -15q-61 0 -115 23.5t-94 63.5t-63.5 94t-23.5 115t23.5 115t63.5 94t94 63.5t115 23.5q49 0 94.5 -15t83.5 -42
q-17 5 -35 8.5t-36 3.5z" />
    <glyph glyph-name="spade" unicode="&#x2660;" horiz-adv-x="920" 
d="M335 0q10 19 26 49.5t31 69t26 82.5t11 89q-9 -26 -24 -50.5t-36 -43.5t-48.5 -30.5t-61.5 -11.5q-35 0 -66 12.5t-54.5 34t-37 50.5t-13.5 61q0 43 13.5 80.5t42 75t73 77.5t106.5 90l140 112h1l140 -112q62 -50 105.5 -90t70.5 -77.5t39.5 -75t12.5 -80.5
q0 -32 -12.5 -60.5t-34 -50t-50 -34t-60.5 -12.5q-37 0 -66 11t-51.5 30t-38.5 43.5t-25 50.5q0 -45 12 -89t28 -82.5t33 -69t27 -49.5h-259z" />
    <glyph glyph-name="club" unicode="&#x2663;" horiz-adv-x="920" 
d="M336 0q9 17 22.5 43t27.5 58t25 69.5t16 77.5q-21 -52 -65 -85t-102 -33q-37 0 -69 14t-56 38t-38 56t-14 69t14 69t38 56t56 38t69 14q11 0 21.5 -2t20.5 -5q-19 41 -19 87q0 36 13.5 68t37.5 56t56 38t68 14t68 -14t56 -38t38 -56t14 -68q0 -45 -19 -88q22 8 46 8
q37 0 69 -14t56 -38t37.5 -56t13.5 -69t-14 -69t-38 -56t-56 -38t-69 -14q-58 0 -100.5 33t-62.5 84q5 -39 17.5 -76.5t27.5 -69.5t29.5 -58t23.5 -43h-259z" />
    <glyph glyph-name="heart" unicode="&#x2665;" horiz-adv-x="920" 
d="M89 550q0 39 14 73.5t39 60.5t58 41t72 15q38 0 70.5 -12.5t56.5 -34t39 -51t19 -63.5q4 34 19 63.5t39 51t56 34t71 12.5t73 -15t60 -41t41 -60.5t15 -73.5q0 -43 -13 -86.5t-41 -92.5t-72 -105.5t-106 -125.5l-142 -157l-141 157q-62 69 -105.5 125.5t-70.5 105.5
t-39 92.5t-12 86.5z" />
    <glyph glyph-name="diamond" unicode="&#x2666;" horiz-adv-x="920" 
d="M460 791l327 -401l-327 -400l-327 400z" />
    <glyph glyph-name="uni267B" unicode="&#x267b;" horiz-adv-x="921" 
d="M822 244l-91 -157q-7 -11 -14 -20.5t-16 -16.5t-21.5 -11t-30.5 -4h-54v-47l-106 128l106 127v-46h136q21 0 37.5 7.5t28.5 16.5q13 11 24 25zM182 111l-90 158q-6 11 -11 21.5t-6.5 22t1.5 24t12 28.5l27 46l-40 23l164 29l55 -156l-38 23q-18 -31 -33 -57
q-13 -22 -23.5 -40.5t-11.5 -20.5q-11 -18 -13 -36.5t0 -32.5q2 -17 9 -32h-2zM389 729h182q13 0 25 -1t22.5 -5.5t20 -13t18.5 -24.5l26 -46l41 23l-58 -157l-162 30l38 22l-67 118q-11 18 -25.5 29t-28.5 16q-16 6 -32 8v1zM260 670q4 6 12.5 14.5t19.5 14.5
q21 12 45 13.5t46 -4.5t39.5 -17.5t24.5 -24.5l-109 -189l-141 81zM302 35q-8 0 -19.5 2.5t-22.5 9.5q-21 12 -34.5 32t-19.5 42t-4.5 42.5t9.5 33.5h218v-162h-127zM832 381q9 -14 9 -41q0 -24 -10.5 -45.5t-27 -37.5t-34.5 -25.5t-33 -9.5l-109 189l140 80z" />
    <glyph glyph-name="uni267C" unicode="&#x267c;" horiz-adv-x="921" 
d="M837 366q0 -78 -29.5 -146.5t-80.5 -119t-119 -80t-146 -29.5t-147 29.5t-120 80t-80.5 119t-29.5 146.5t29.5 146.5t80.5 120t120 81t147 29.5t146 -29.5t119 -81t80.5 -120t29.5 -146.5zM255 520l109 -63l84 146q-6 10 -19 19t-30.5 13.5t-36 3.5t-34.5 -10
q-8 -5 -15 -11.5t-9 -11.5zM399 651q14 -2 26 -7q11 -5 22 -12.5t19 -21.5l53 -91l-30 -18l126 -23l44 122l-31 -18l-21 36q-14 24 -30 29t-37 5h-141v-1zM431 114v126h-170q-6 -11 -7 -26.5t4 -32.5t15 -32.5t27 -25.5q8 -5 17 -7t15 -2h99zM244 173q-4 12 -6 25
q-2 11 -0.5 25.5t9.5 28.5l53 91l30 -18l-43 121l-127 -22l31 -18l-21 -36q-15 -25 -10.5 -41t13.5 -34l70 -122h1zM697 468l-110 -63l85 -147q12 0 26 7.5t27 20t21 29.5t8 36q0 10 -2.5 18.5t-5.5 13.5zM738 277q-8 -11 -19 -19q-9 -7 -21.5 -12.5t-29.5 -5.5h-105v35
l-83 -98l83 -99v36h41q29 0 41.5 11.5t22.5 28.5l71 122z" />
    <glyph glyph-name="uni267D" unicode="&#x267d;" horiz-adv-x="921" 
d="M837 366q0 -78 -29.5 -146.5t-80.5 -119t-119 -80t-146 -29.5t-147 29.5t-120 80t-80.5 119t-29.5 146.5t29.5 146.5t80.5 120t120 81t147 29.5t146 -29.5t119 -81t80.5 -120t29.5 -146.5zM818 366q0 74 -28 139.5t-76 114t-113 76.5t-139 28q-75 0 -140 -28t-114 -76.5
t-77 -114t-28 -139.5t28 -139t77 -113.5t114 -76.5t140 -28q74 0 139 28t113 76.5t76 113.5t28 139zM304 606q2 5 9 11.5t15 11.5q16 9 34.5 10t36 -3.5t30.5 -13.5t19 -19l-84 -146l-109 63zM399 652h141q21 0 37 -5t30 -29l21 -36l31 18l-44 -122l-126 23l30 18l-53 91
q-8 14 -19 21.5t-22 12.5q-12 5 -26 7v1zM332 114q-6 0 -15 2t-17 7q-17 10 -27 25.5t-15 32.5t-4 32.5t7 26.5h170v-126h-99zM243 173l-70 122q-9 18 -13.5 34t10.5 41l21 36l-31 18l127 22l43 -121l-30 18l-53 -91q-8 -14 -9.5 -28.5t0.5 -25.5q2 -13 6 -25h-1zM746 383
q3 -5 5.5 -13.5t2.5 -18.5q0 -19 -8 -36t-21 -29.5t-27 -20t-26 -7.5l-85 147l110 63zM739 276l-71 -122q-10 -17 -22.5 -28.5t-41.5 -11.5h-41v-36l-83 99l83 98v-35h105q17 0 29.5 5.5t21.5 12.5q11 8 19 19z" />
    <glyph glyph-name="mediumwhitecircle" unicode="&#x26aa;" horiz-adv-x="698" 
d="M349 -10q-54 0 -101 20t-82.5 55t-55.5 82.5t-20 102.5t20 102.5t55.5 82.5t82.5 55t101 20t101.5 -20t82.5 -55t55.5 -82.5t20.5 -102.5t-20.5 -102.5t-55.5 -82.5t-82.5 -55t-101.5 -20zM349 60q38 0 71.5 15t58 40.5t38.5 60.5t14 74t-14 74t-38.5 60.5t-58 40.5
t-71.5 15t-71 -15t-57.5 -40.5t-38.5 -60.5t-14 -74t14 -74t38.5 -60.5t57.5 -40.5t71 -15z" />
    <glyph glyph-name="mediumblackcircle" unicode="&#x26ab;" horiz-adv-x="698" 
d="M349 -10q-54 0 -101 20.5t-82.5 55.5t-55.5 82.5t-20 101.5t20 101.5t55.5 82.5t82.5 55.5t101 20.5t101 -20.5t82.5 -55.5t55.5 -82.5t20 -101.5t-20 -101.5t-55.5 -82.5t-82.5 -55.5t-101 -20.5z" />
    <glyph glyph-name="anglebracketleft" unicode="&#x3008;" horiz-adv-x="368" 
d="M31 250l228 480h83l-228 -480l228 -480h-83z" />
    <glyph glyph-name="anglebracketright" unicode="&#x3009;" horiz-adv-x="368" 
d="M31 -230l228 480l-228 480h83l228 -480l-228 -480h-83z" />
    <glyph glyph-name="R.alt" unicode="&#xe141;" horiz-adv-x="594" 
d="M72 730h224q54 0 99.5 -18t78.5 -49.5t51.5 -74t18.5 -90.5q0 -39 -12 -75t-35.5 -65.5t-56.5 -51t-75 -30.5l185 -276h-91l-220 334h50q41 0 74 14t56 37t35 52.5t12 60.5q0 34 -12 63.5t-35 51t-55.5 33.5t-73.5 12h-140v-658h-78v730z" />
    <glyph glyph-name="Racute.alt" unicode="&#xe142;" horiz-adv-x="594" 
d="M72 730h224q54 0 99.5 -18t78.5 -49.5t51.5 -74t18.5 -90.5q0 -39 -12 -75t-35.5 -65.5t-56.5 -51t-75 -30.5l185 -276h-91l-220 334h50q41 0 74 14t56 37t35 52.5t12 60.5q0 34 -12 63.5t-35 51t-55.5 33.5t-73.5 12h-140v-658h-78v730zM336 950h100l-145 -162h-72z" />
    <glyph glyph-name="Rcaron.alt" unicode="&#xe143;" horiz-adv-x="594" 
d="M72 730h224q54 0 99.5 -18t78.5 -49.5t51.5 -74t18.5 -90.5q0 -39 -12 -75t-35.5 -65.5t-56.5 -51t-75 -30.5l185 -276h-91l-220 334h50q41 0 74 14t56 37t35 52.5t12 60.5q0 34 -12 63.5t-35 51t-55.5 33.5t-73.5 12h-140v-658h-78v730zM125 950h80l71 -100l72 100h80
l-119 -162h-65z" />
    <glyph glyph-name="Rcommaaccent.alt" unicode="&#xe146;" horiz-adv-x="594" 
d="M72 730h224q54 0 99.5 -18t78.5 -49.5t51.5 -74t18.5 -90.5q0 -39 -12 -75t-35.5 -65.5t-56.5 -51t-75 -30.5l185 -276h-91l-220 334h50q41 0 74 14t56 37t35 52.5t12 60.5q0 34 -12 63.5t-35 51t-55.5 33.5t-73.5 12h-140v-658h-78v730zM228 -264l41 204h71l-59 -204
h-53z" />
    <glyph glyph-name="cordinal" unicode="&#xe181;" horiz-adv-x="391" 
d="M203 435q-31 0 -58.5 12t-47.5 32t-32 47.5t-12 58.5t12 59t32 48t47.5 32t58.5 12q42 0 76.5 -21t54.5 -54l-50 -29q-11 21 -32.5 34.5t-48.5 13.5q-40 0 -66.5 -27.5t-26.5 -67.5q0 -39 26.5 -66.5t66.5 -27.5q30 0 51.5 14.5t32.5 37.5l51 -27q-20 -36 -54.5 -58.5
t-80.5 -22.5z" />
    <glyph glyph-name="p.smcp" unicode="&#xf770;" horiz-adv-x="528" 
d="M70 596h192q48 0 87.5 -16t68 -44t44.5 -66t16 -81q0 -44 -16 -82t-44.5 -66t-68.5 -44t-88 -16h-114v-181h-77v596zM147 524v-270h109q33 0 59.5 10.5t45 28.5t28.5 42.5t10 53.5q0 28 -10 53t-28.5 43t-45 28.5t-59.5 10.5h-109z" />
    <glyph glyph-name="p.smcp" unicode="&#xe200;" horiz-adv-x="528" 
d="M70 596h192q48 0 87.5 -16t68 -44t44.5 -66t16 -81q0 -44 -16 -82t-44.5 -66t-68.5 -44t-88 -16h-114v-181h-77v596zM147 524v-270h109q33 0 59.5 10.5t45 28.5t28.5 42.5t10 53.5q0 28 -10 53t-28.5 43t-45 28.5t-59.5 10.5h-109z" />
    <glyph glyph-name="a.smcp" unicode="&#xf761;" horiz-adv-x="581" 
d="M249 596h82l222 -596h-80l-51 137h-263l-50 -137h-81zM187 211h208l-104 281z" />
    <glyph glyph-name="a.smcp" unicode="&#xe201;" horiz-adv-x="581" 
d="M249 596h82l222 -596h-80l-51 137h-263l-50 -137h-81zM187 211h208l-104 281z" />
    <glyph glyph-name="b.smcp" unicode="&#xf762;" horiz-adv-x="535" 
d="M70 596h208q88 0 139.5 -42.5t51.5 -117.5q0 -85 -72 -125q43 -18 66.5 -54t23.5 -87q0 -81 -53.5 -125.5t-141.5 -44.5h-222v596zM147 270v-199h147q54 0 85 27.5t31 72.5t-28.5 72t-91.5 27h-143zM147 525v-182h138q54 0 80.5 26t26.5 67t-29 65t-83 24h-133z" />
    <glyph glyph-name="b.smcp" unicode="&#xe202;" horiz-adv-x="535" 
d="M70 596h208q88 0 139.5 -42.5t51.5 -117.5q0 -85 -72 -125q43 -18 66.5 -54t23.5 -87q0 -81 -53.5 -125.5t-141.5 -44.5h-222v596zM147 270v-199h147q54 0 85 27.5t31 72.5t-28.5 72t-91.5 27h-143zM147 525v-182h138q54 0 80.5 26t26.5 67t-29 65t-83 24h-133z" />
    <glyph glyph-name="c.smcp" unicode="&#xf763;" horiz-adv-x="661" 
d="M355 -8q-66 0 -122.5 24.5t-97.5 66.5t-64 97.5t-23 117.5q0 64 24 120t65.5 97t97 65t118.5 24q43 0 84 -12t76 -33.5t63.5 -52t47.5 -66.5l-69 -36q-28 56 -80.5 92t-120.5 36q-49 0 -90.5 -19t-72 -51t-47.5 -74.5t-17 -89.5q0 -49 17.5 -91.5t48 -74t72 -50
t88.5 -18.5q75 0 127 38.5t79 98.5l72 -32q-39 -81 -111 -129t-165 -48z" />
    <glyph glyph-name="c.smcp" unicode="&#xe203;" horiz-adv-x="661" 
d="M355 -8q-66 0 -122.5 24.5t-97.5 66.5t-64 97.5t-23 117.5q0 64 24 120t65.5 97t97 65t118.5 24q43 0 84 -12t76 -33.5t63.5 -52t47.5 -66.5l-69 -36q-28 56 -80.5 92t-120.5 36q-49 0 -90.5 -19t-72 -51t-47.5 -74.5t-17 -89.5q0 -49 17.5 -91.5t48 -74t72 -50
t88.5 -18.5q75 0 127 38.5t79 98.5l72 -32q-39 -81 -111 -129t-165 -48z" />
    <glyph glyph-name="d.smcp" unicode="&#xf764;" horiz-adv-x="595" 
d="M70 596h166q71 0 128.5 -23t98 -63t62.5 -94.5t22 -117.5q0 -64 -23 -118.5t-64.5 -94.5t-98 -62.5t-122.5 -22.5h-169v596zM147 524v-451h85q52 0 95.5 17t74.5 47.5t48 71.5t17 89q0 49 -16 90.5t-46.5 71.5t-74.5 47t-101 17h-82z" />
    <glyph glyph-name="d.smcp" unicode="&#xe204;" horiz-adv-x="595" 
d="M70 596h166q71 0 128.5 -23t98 -63t62.5 -94.5t22 -117.5q0 -64 -23 -118.5t-64.5 -94.5t-98 -62.5t-122.5 -22.5h-169v596zM147 524v-451h85q52 0 95.5 17t74.5 47.5t48 71.5t17 89q0 49 -16 90.5t-46.5 71.5t-74.5 47t-101 17h-82z" />
    <glyph glyph-name="e.smcp" unicode="&#xf765;" horiz-adv-x="485" 
d="M70 596h359v-72h-282v-189h282v-72h-282v-190h282v-73h-359v596z" />
    <glyph glyph-name="e.smcp" unicode="&#xe205;" horiz-adv-x="485" 
d="M70 596h359v-72h-282v-189h282v-72h-282v-190h282v-73h-359v596z" />
    <glyph glyph-name="f.smcp" unicode="&#xf766;" horiz-adv-x="456" 
d="M70 596h337v-72h-260v-189h260v-72h-260v-263h-77v596z" />
    <glyph glyph-name="f.smcp" unicode="&#xe206;" horiz-adv-x="456" 
d="M70 596h337v-72h-260v-189h260v-72h-260v-263h-77v596z" />
    <glyph glyph-name="g.smcp" unicode="&#xf767;" horiz-adv-x="702" 
d="M356 -8q-65 0 -121.5 24t-98 66t-65 97.5t-23.5 118.5t24 119t65.5 97.5t98 65.5t121.5 24q44 0 84 -11t74 -31.5t61.5 -49t46.5 -62.5l-68 -40q-29 55 -80 88.5t-118 33.5q-50 0 -92.5 -19t-73 -51t-47.5 -74.5t-17 -89.5q0 -48 17 -90.5t47.5 -74.5t72.5 -50.5
t92 -18.5q46 0 83 14t64 39t44.5 59t24.5 73h-225v74h307v-25q0 -62 -21 -117.5t-59.5 -97.5t-93.5 -66.5t-124 -24.5z" />
    <glyph glyph-name="g.smcp" unicode="&#xe207;" horiz-adv-x="702" 
d="M356 -8q-65 0 -121.5 24t-98 66t-65 97.5t-23.5 118.5t24 119t65.5 97.5t98 65.5t121.5 24q44 0 84 -11t74 -31.5t61.5 -49t46.5 -62.5l-68 -40q-29 55 -80 88.5t-118 33.5q-50 0 -92.5 -19t-73 -51t-47.5 -74.5t-17 -89.5q0 -48 17 -90.5t47.5 -74.5t72.5 -50.5
t92 -18.5q46 0 83 14t64 39t44.5 59t24.5 73h-225v74h307v-25q0 -62 -21 -117.5t-59.5 -97.5t-93.5 -66.5t-124 -24.5z" />
    <glyph glyph-name="h.smcp" unicode="&#xf768;" horiz-adv-x="585" 
d="M438 263h-291v-263h-77v596h77v-260h291v260h77v-596h-77v263z" />
    <glyph glyph-name="h.smcp" unicode="&#xe208;" horiz-adv-x="585" 
d="M438 263h-291v-263h-77v596h77v-260h291v260h77v-596h-77v263z" />
    <glyph glyph-name="i.smcp" unicode="&#xf769;" horiz-adv-x="229" 
d="M75 596h79v-596h-79v596z" />
    <glyph glyph-name="i.smcp" unicode="&#xe209;" horiz-adv-x="229" 
d="M75 596h79v-596h-79v596z" />
    <glyph glyph-name="j.smcp" unicode="&#xf76a;" horiz-adv-x="402" 
d="M180 -8q-59 0 -101 27.5t-60 71.5l73 36q11 -27 33 -45t54 -18q38 0 59.5 25.5t21.5 70.5v436h77v-432q0 -84 -41.5 -128t-115.5 -44z" />
    <glyph glyph-name="j.smcp" unicode="&#xe20a;" horiz-adv-x="402" 
d="M180 -8q-59 0 -101 27.5t-60 71.5l73 36q11 -27 33 -45t54 -18q38 0 59.5 25.5t21.5 70.5v436h77v-432q0 -84 -41.5 -128t-115.5 -44z" />
    <glyph glyph-name="k.smcp" unicode="&#xf76b;" horiz-adv-x="551" 
d="M247 307l-100 -111v-196h-77v596h77v-303l272 303h95l-212 -235l221 -361h-88z" />
    <glyph glyph-name="k.smcp" unicode="&#xe20b;" horiz-adv-x="551" 
d="M247 307l-100 -111v-196h-77v596h77v-303l272 303h95l-212 -235l221 -361h-88z" />
    <glyph glyph-name="l.smcp" unicode="&#xf76c;" horiz-adv-x="447" 
d="M70 596h77v-522h253v-74h-330v596z" />
    <glyph glyph-name="l.smcp" unicode="&#xe20c;" horiz-adv-x="447" 
d="M70 596h77v-522h253v-74h-330v596z" />
    <glyph glyph-name="m.smcp" unicode="&#xf76d;" horiz-adv-x="724" 
d="M70 596h76l217 -301l217 301h74v-596h-77v463l-214 -296l-216 299v-466h-77v596z" />
    <glyph glyph-name="m.smcp" unicode="&#xe20d;" horiz-adv-x="724" 
d="M70 596h76l217 -301l217 301h74v-596h-77v463l-214 -296l-216 299v-466h-77v596z" />
    <glyph glyph-name="n.smcp" unicode="&#xf76e;" horiz-adv-x="629" 
d="M70 596h86l326 -471v471h77v-596h-82l-330 476v-476h-77v596z" />
    <glyph glyph-name="n.smcp" unicode="&#xe20e;" horiz-adv-x="629" 
d="M70 596h86l326 -471v471h77v-596h-82l-330 476v-476h-77v596z" />
    <glyph glyph-name="o.smcp" unicode="&#xf76f;" horiz-adv-x="707" 
d="M353 -8q-63 0 -119 24t-97 65.5t-65 97.5t-24 119t24 119t65 97.5t97 65.5t119 24t119 -24t97.5 -65.5t65.5 -97.5t24 -119t-24 -119t-65.5 -97.5t-97.5 -65.5t-119 -24zM353 64q48 0 89.5 18.5t71.5 50t47.5 74.5t17.5 91t-17.5 90.5t-47.5 74.5t-71.5 50.5t-89.5 18.5
t-89.5 -18.5t-71.5 -50.5t-47.5 -74.5t-17.5 -90.5t17.5 -91t47.5 -74.5t71.5 -50t89.5 -18.5z" />
    <glyph glyph-name="o.smcp" unicode="&#xe20f;" horiz-adv-x="707" 
d="M353 -8q-63 0 -119 24t-97 65.5t-65 97.5t-24 119t24 119t65 97.5t97 65.5t119 24t119 -24t97.5 -65.5t65.5 -97.5t24 -119t-24 -119t-65.5 -97.5t-97.5 -65.5t-119 -24zM353 64q48 0 89.5 18.5t71.5 50t47.5 74.5t17.5 91t-17.5 90.5t-47.5 74.5t-71.5 50.5t-89.5 18.5
t-89.5 -18.5t-71.5 -50.5t-47.5 -74.5t-17.5 -90.5t17.5 -91t47.5 -74.5t71.5 -50t89.5 -18.5z" />
    <glyph glyph-name="q.smcp" unicode="&#xf771;" horiz-adv-x="707" 
d="M353 -8q-63 0 -119 24t-97 65.5t-65 97.5t-24 119t24 119t65 97.5t97 65.5t119 24t119 -24t97.5 -65.5t65.5 -97.5t24 -119q0 -60 -21.5 -112.5t-59.5 -93.5l75 -92h-98l-215 269h95l95 -118q23 30 36 67.5t13 79.5q0 48 -17.5 90.5t-47.5 74.5t-71.5 50.5t-89.5 18.5
t-89.5 -18.5t-71.5 -50.5t-47.5 -74.5t-17.5 -90.5t17.5 -91t47.5 -74.5t71.5 -50t89.5 -18.5q51 0 97 22l46 -58q-32 -17 -68 -26.5t-75 -9.5z" />
    <glyph glyph-name="q.smcp" unicode="&#xe211;" horiz-adv-x="707" 
d="M353 -8q-63 0 -119 24t-97 65.5t-65 97.5t-24 119t24 119t65 97.5t97 65.5t119 24t119 -24t97.5 -65.5t65.5 -97.5t24 -119q0 -60 -21.5 -112.5t-59.5 -93.5l75 -92h-98l-215 269h95l95 -118q23 30 36 67.5t13 79.5q0 48 -17.5 90.5t-47.5 74.5t-71.5 50.5t-89.5 18.5
t-89.5 -18.5t-71.5 -50.5t-47.5 -74.5t-17.5 -90.5t17.5 -91t47.5 -74.5t71.5 -50t89.5 -18.5q51 0 97 22l46 -58q-32 -17 -68 -26.5t-75 -9.5z" />
    <glyph glyph-name="r.smcp" unicode="&#xf772;" horiz-adv-x="538" 
d="M70 596h215q44 0 81.5 -15t64.5 -40.5t42.5 -60t15.5 -73.5q0 -57 -32 -106.5t-89 -72.5l136 -228h-88l-122 210h-145v-210h-79v596zM149 524v-246h127q31 0 55.5 11t42 29t26.5 40.5t9 45.5q0 54 -33 87t-100 33h-127z" />
    <glyph glyph-name="r.smcp" unicode="&#xe212;" horiz-adv-x="538" 
d="M70 596h215q44 0 81.5 -15t64.5 -40.5t42.5 -60t15.5 -73.5q0 -57 -32 -106.5t-89 -72.5l136 -228h-88l-122 210h-145v-210h-79v596zM149 524v-246h127q31 0 55.5 11t42 29t26.5 40.5t9 45.5q0 54 -33 87t-100 33h-127z" />
    <glyph glyph-name="s.smcp" unicode="&#xf773;" horiz-adv-x="478" 
d="M238 -8q-75 0 -127 30t-89 78l68 53q26 -43 63 -66t84 -23q51 0 83 29.5t32 73.5q0 25 -11.5 42t-31 29t-44.5 21t-52 18q-30 10 -60 22t-54 31t-38.5 46.5t-14.5 68.5q0 34 14.5 63t39.5 50.5t59 33.5t73 12q66 0 111 -23t79 -65l-63 -48q-42 68 -126 68
q-48 0 -77.5 -25.5t-29.5 -64.5q0 -24 11 -40.5t29.5 -28.5t43.5 -21t53 -18q30 -10 60.5 -22.5t54.5 -31.5t39 -47t15 -70q0 -34 -13.5 -65.5t-39 -56t-61 -39t-80.5 -14.5z" />
    <glyph glyph-name="s.smcp" unicode="&#xe213;" horiz-adv-x="478" 
d="M238 -8q-75 0 -127 30t-89 78l68 53q26 -43 63 -66t84 -23q51 0 83 29.5t32 73.5q0 25 -11.5 42t-31 29t-44.5 21t-52 18q-30 10 -60 22t-54 31t-38.5 46.5t-14.5 68.5q0 34 14.5 63t39.5 50.5t59 33.5t73 12q66 0 111 -23t79 -65l-63 -48q-42 68 -126 68
q-48 0 -77.5 -25.5t-29.5 -64.5q0 -24 11 -40.5t29.5 -28.5t43.5 -21t53 -18q30 -10 60.5 -22.5t54.5 -31.5t39 -47t15 -70q0 -34 -13.5 -65.5t-39 -56t-61 -39t-80.5 -14.5z" />
    <glyph glyph-name="t.smcp" unicode="&#xf774;" horiz-adv-x="511" 
d="M217 522h-174v74h425v-74h-173v-522h-78v522z" />
    <glyph glyph-name="t.smcp" unicode="&#xe214;" horiz-adv-x="511" 
d="M217 522h-174v74h425v-74h-173v-522h-78v522z" />
    <glyph glyph-name="u.smcp" unicode="&#xf775;" horiz-adv-x="537" 
d="M268 -8q-44 0 -81.5 14t-64.5 40t-42 63.5t-15 84.5v402h77v-406q0 -58 35 -92t92 -34q56 0 91 34t35 92v406h77v-402q0 -47 -15.5 -84.5t-42.5 -63.5t-64.5 -40t-81.5 -14z" />
    <glyph glyph-name="u.smcp" unicode="&#xe215;" horiz-adv-x="537" 
d="M268 -8q-44 0 -81.5 14t-64.5 40t-42 63.5t-15 84.5v402h77v-406q0 -58 35 -92t92 -34q56 0 91 34t35 92v406h77v-402q0 -47 -15.5 -84.5t-42.5 -63.5t-64.5 -40t-81.5 -14z" />
    <glyph glyph-name="v.smcp" unicode="&#xf776;" horiz-adv-x="559" 
d="M28 596h81l170 -485l170 485h82l-213 -596h-79z" />
    <glyph glyph-name="v.smcp" unicode="&#xe216;" horiz-adv-x="559" 
d="M28 596h81l170 -485l170 485h82l-213 -596h-79z" />
    <glyph glyph-name="w.smcp" unicode="&#xf777;" horiz-adv-x="874" 
d="M30 596h82l131 -475l152 475h74l152 -481l144 481h79l-183 -596h-79l-150 474l-152 -474h-80z" />
    <glyph glyph-name="w.smcp" unicode="&#xe217;" horiz-adv-x="874" 
d="M30 596h82l131 -475l152 475h74l152 -481l144 481h79l-183 -596h-79l-150 474l-152 -474h-80z" />
    <glyph glyph-name="x.smcp" unicode="&#xf778;" horiz-adv-x="541" 
d="M273 240l-154 -240h-91l202 303l-190 293h85l149 -230l144 230h90l-190 -291l195 -305h-86z" />
    <glyph glyph-name="x.smcp" unicode="&#xe218;" horiz-adv-x="541" 
d="M273 240l-154 -240h-91l202 303l-190 293h85l149 -230l144 230h90l-190 -291l195 -305h-86z" />
    <glyph glyph-name="y.smcp" unicode="&#xf779;" horiz-adv-x="523" 
d="M223 281l-196 315h85l148 -241l150 241h86l-196 -315v-281h-77v281z" />
    <glyph glyph-name="y.smcp" unicode="&#xe219;" horiz-adv-x="523" 
d="M223 281l-196 315h85l148 -241l150 241h86l-196 -315v-281h-77v281z" />
    <glyph glyph-name="z.smcp" unicode="&#xf77a;" horiz-adv-x="492" 
d="M47 72l303 450h-293v74h385v-71l-303 -450h303v-75h-395v72z" />
    <glyph glyph-name="z.smcp" unicode="&#xe21a;" horiz-adv-x="492" 
d="M47 72l303 450h-293v74h385v-71l-303 -450h303v-75h-395v72z" />
    <glyph glyph-name="anocross.smcp" unicode="&#xe220;" horiz-adv-x="581" 
d="M249 596h82l222 -596h-80l-182 492l-182 -492h-81z" />
    <glyph glyph-name="aacute.smcp" unicode="&#xf7e1;" horiz-adv-x="581" 
d="M249 596h82l222 -596h-80l-51 137h-263l-50 -137h-81zM187 211h208l-104 281zM369 816h100l-145 -162h-72z" />
    <glyph glyph-name="aacute.smcp" unicode="&#xe221;" horiz-adv-x="581" 
d="M249 596h82l222 -596h-80l-51 137h-263l-50 -137h-81zM187 211h208l-104 281zM369 816h100l-145 -162h-72z" />
    <glyph glyph-name="agrave.smcp" unicode="&#xf7e0;" horiz-adv-x="581" 
d="M249 596h82l222 -596h-80l-51 137h-263l-50 -137h-81zM187 211h208l-104 281zM105 816h99l118 -162h-72z" />
    <glyph glyph-name="agrave.smcp" unicode="&#xe222;" horiz-adv-x="581" 
d="M249 596h82l222 -596h-80l-51 137h-263l-50 -137h-81zM187 211h208l-104 281zM105 816h99l118 -162h-72z" />
    <glyph glyph-name="acircumflex.smcp" unicode="&#xf7e2;" horiz-adv-x="581" 
d="M249 596h82l222 -596h-80l-51 137h-263l-50 -137h-81zM187 211h208l-104 281zM255 808h66l119 -162h-80l-72 100l-71 -100h-81z" />
    <glyph glyph-name="acircumflex.smcp" unicode="&#xe223;" horiz-adv-x="581" 
d="M249 596h82l222 -596h-80l-51 137h-263l-50 -137h-81zM187 211h208l-104 281zM255 808h66l119 -162h-80l-72 100l-71 -100h-81z" />
    <glyph glyph-name="adieresis.smcp" unicode="&#xf7e4;" horiz-adv-x="581" 
d="M249 596h82l222 -596h-80l-51 137h-263l-50 -137h-81zM187 211h208l-104 281zM151 707q0 24 16.5 40t39.5 16q24 0 40 -16t16 -40q0 -23 -16 -39.5t-40 -16.5q-25 0 -40.5 16.5t-15.5 39.5zM320 707q0 24 16.5 40t39.5 16q24 0 40 -16t16 -40q0 -23 -16 -39.5t-40 -16.5
q-25 0 -40.5 16.5t-15.5 39.5z" />
    <glyph glyph-name="adieresis.smcp" unicode="&#xe224;" horiz-adv-x="581" 
d="M249 596h82l222 -596h-80l-51 137h-263l-50 -137h-81zM187 211h208l-104 281zM151 707q0 24 16.5 40t39.5 16q24 0 40 -16t16 -40q0 -23 -16 -39.5t-40 -16.5q-25 0 -40.5 16.5t-15.5 39.5zM320 707q0 24 16.5 40t39.5 16q24 0 40 -16t16 -40q0 -23 -16 -39.5t-40 -16.5
q-25 0 -40.5 16.5t-15.5 39.5z" />
    <glyph glyph-name="atilde.smcp" unicode="&#xf7e3;" horiz-adv-x="581" 
d="M249 596h82l222 -596h-80l-51 137h-263l-50 -137h-81zM187 211h208l-104 281zM118 654q0 55 27.5 87.5t71.5 32.5q25 0 44 -8t37 -19q17 -11 32 -19.5t31 -8.5q18 0 28.5 13t10.5 39h62q0 -56 -25.5 -88.5t-74.5 -32.5q-29 0 -50.5 11t-40.5 22q-14 8 -26 15t-28 7
q-37 0 -37 -51h-62z" />
    <glyph glyph-name="atilde.smcp" unicode="&#xe225;" horiz-adv-x="581" 
d="M249 596h82l222 -596h-80l-51 137h-263l-50 -137h-81zM187 211h208l-104 281zM118 654q0 55 27.5 87.5t71.5 32.5q25 0 44 -8t37 -19q17 -11 32 -19.5t31 -8.5q18 0 28.5 13t10.5 39h62q0 -56 -25.5 -88.5t-74.5 -32.5q-29 0 -50.5 11t-40.5 22q-14 8 -26 15t-28 7
q-37 0 -37 -51h-62z" />
    <glyph glyph-name="aring.smcp" unicode="&#xf7e5;" horiz-adv-x="581" 
d="M249 596h82l222 -596h-80l-51 137h-263l-50 -137h-81zM290 653q-22 0 -41 8.5t-33.5 23t-23 34t-8.5 41.5q0 23 8.5 42.5t23 34t33.5 23t41 8.5q23 0 43 -8.5t34.5 -23t23 -34t8.5 -42.5q0 -22 -8.5 -41.5t-23 -34t-34.5 -23t-43 -8.5zM187 211h208l-104 281zM290 710
q22 0 37 14.5t15 35.5t-15 36.5t-37 15.5q-20 0 -35 -15.5t-15 -36.5t15 -35.5t35 -14.5z" />
    <glyph glyph-name="aring.smcp" unicode="&#xe226;" horiz-adv-x="581" 
d="M249 596h82l222 -596h-80l-51 137h-263l-50 -137h-81zM290 653q-22 0 -41 8.5t-33.5 23t-23 34t-8.5 41.5q0 23 8.5 42.5t23 34t33.5 23t41 8.5q23 0 43 -8.5t34.5 -23t23 -34t8.5 -42.5q0 -22 -8.5 -41.5t-23 -34t-34.5 -23t-43 -8.5zM187 211h208l-104 281zM290 710
q22 0 37 14.5t15 35.5t-15 36.5t-37 15.5q-20 0 -35 -15.5t-15 -36.5t15 -35.5t35 -14.5z" />
    <glyph glyph-name="amacron.smcp" unicode="&#xf641;" horiz-adv-x="581" 
d="M249 596h82l222 -596h-80l-51 137h-263l-50 -137h-81zM187 211h208l-104 281zM156 721h264v-67h-264v67z" />
    <glyph glyph-name="amacron.smcp" unicode="&#xe228;" horiz-adv-x="581" 
d="M249 596h82l222 -596h-80l-51 137h-263l-50 -137h-81zM187 211h208l-104 281zM156 721h264v-67h-264v67z" />
    <glyph glyph-name="abreve.smcp" unicode="&#xf640;" horiz-adv-x="581" 
d="M249 596h82l222 -596h-80l-51 137h-263l-50 -137h-81zM187 211h208l-104 281zM288 647q-41 0 -71.5 13t-50.5 35t-29.5 52t-9.5 63h66q0 -48 24 -76t71 -29q45 1 69.5 29t24.5 76h68q0 -33 -11.5 -63t-32.5 -52t-51 -35t-67 -13z" />
    <glyph glyph-name="abreve.smcp" unicode="&#xe229;" horiz-adv-x="581" 
d="M249 596h82l222 -596h-80l-51 137h-263l-50 -137h-81zM187 211h208l-104 281zM288 647q-41 0 -71.5 13t-50.5 35t-29.5 52t-9.5 63h66q0 -48 24 -76t71 -29q45 1 69.5 29t24.5 76h68q0 -33 -11.5 -63t-32.5 -52t-51 -35t-67 -13z" />
    <glyph glyph-name="aringacute.smcp" unicode="&#xf625;" horiz-adv-x="581" 
d="M235 557q-24 14 -38.5 38.5t-14.5 54.5q0 23 8.5 42.5t23 34t33.5 23t41 8.5q23 0 43 -8.5t34.5 -23t23 -34t8.5 -42.5q0 -29 -14.5 -53.5t-37.5 -38.5l208 -558h-80l-51 137h-263l-50 -137h-81zM187 211h208l-104 281zM365 955h100l-145 -162h-72zM288 600q22 0 37 14.5
t15 35.5t-15 36.5t-37 15.5q-20 0 -35 -15.5t-15 -36.5t15 -35.5t35 -14.5z" />
    <glyph glyph-name="aringacute.smcp" unicode="&#xe22d;" horiz-adv-x="581" 
d="M235 557q-24 14 -38.5 38.5t-14.5 54.5q0 23 8.5 42.5t23 34t33.5 23t41 8.5q23 0 43 -8.5t34.5 -23t23 -34t8.5 -42.5q0 -29 -14.5 -53.5t-37.5 -38.5l208 -558h-80l-51 137h-263l-50 -137h-81zM187 211h208l-104 281zM365 955h100l-145 -162h-72zM288 600q22 0 37 14.5
t15 35.5t-15 36.5t-37 15.5q-20 0 -35 -15.5t-15 -36.5t15 -35.5t35 -14.5z" />
    <glyph glyph-name="aogonek.smcp" unicode="&#xf642;" horiz-adv-x="581" 
d="M485 -216q-30 0 -55 8t-42.5 21.5t-27.5 32t-10 39.5q0 34 25 67t90 68l-43 117h-263l-50 -137h-81l221 596h82l222 -596q-38 -23 -62 -39t-38 -28.5t-19.5 -22.5t-5.5 -21q0 -20 16.5 -30.5t40.5 -10.5q25 0 41.5 10t32.5 24l61 -42q-26 -23 -62 -39.5t-73 -16.5z
M187 211h208l-104 281z" />
    <glyph glyph-name="aogonek.smcp" unicode="&#xe22f;" horiz-adv-x="581" 
d="M485 -216q-30 0 -55 8t-42.5 21.5t-27.5 32t-10 39.5q0 34 25 67t90 68l-43 117h-263l-50 -137h-81l221 596h82l222 -596q-38 -23 -62 -39t-38 -28.5t-19.5 -22.5t-5.5 -21q0 -20 16.5 -30.5t40.5 -10.5q25 0 41.5 10t32.5 24l61 -42q-26 -23 -62 -39.5t-73 -16.5z
M187 211h208l-104 281z" />
    <glyph glyph-name="edieresis.smcp" unicode="&#xf7eb;" horiz-adv-x="485" 
d="M70 596h359v-72h-282v-189h282v-72h-282v-190h282v-73h-359v596zM284 716q0 24 16.5 40t39.5 16q24 0 40 -16t16 -40q0 -23 -16 -39.5t-40 -16.5q-25 0 -40.5 16.5t-15.5 39.5zM115 716q0 24 16.5 40t39.5 16q24 0 40 -16t16 -40q0 -23 -16 -39.5t-40 -16.5
q-25 0 -40.5 16.5t-15.5 39.5z" />
    <glyph glyph-name="edieresis.smcp" unicode="&#xe230;" horiz-adv-x="485" 
d="M70 596h359v-72h-282v-189h282v-72h-282v-190h282v-73h-359v596zM284 716q0 24 16.5 40t39.5 16q24 0 40 -16t16 -40q0 -23 -16 -39.5t-40 -16.5q-25 0 -40.5 16.5t-15.5 39.5zM115 716q0 24 16.5 40t39.5 16q24 0 40 -16t16 -40q0 -23 -16 -39.5t-40 -16.5
q-25 0 -40.5 16.5t-15.5 39.5z" />
    <glyph glyph-name="ae.smcp" unicode="&#xf7e6;" horiz-adv-x="856" 
d="M311 596h489v-74h-387l39 -186h348v-74h-333l39 -187h294v-75h-358l-29 135h-236l-63 -135h-85zM211 207h187l-58 277z" />
    <glyph glyph-name="ae.smcp" unicode="&#xe231;" horiz-adv-x="856" 
d="M311 596h489v-74h-387l39 -186h348v-74h-333l39 -187h294v-75h-358l-29 135h-236l-63 -135h-85zM211 207h187l-58 277z" />
    <glyph glyph-name="aeacute.smcp" unicode="&#xf624;" horiz-adv-x="863" 
d="M312 596h489v-74h-387l39 -186h348v-74h-333l39 -187h294v-75h-358l-29 135h-236l-63 -135h-85zM212 207h187l-58 277zM576 816h100l-145 -162h-72z" />
    <glyph glyph-name="aeacute.smcp" unicode="&#xe232;" horiz-adv-x="863" 
d="M312 596h489v-74h-387l39 -186h348v-74h-333l39 -187h294v-75h-358l-29 135h-236l-63 -135h-85zM212 207h187l-58 277zM576 816h100l-145 -162h-72z" />
    <glyph glyph-name="cacute.smcp" unicode="&#xf643;" horiz-adv-x="661" 
d="M428 816h100l-145 -162h-72zM355 -8q-66 0 -122.5 24.5t-97.5 66.5t-64 97.5t-23 117.5q0 64 24 120t65.5 97t97 65t118.5 24q43 0 84 -12t76 -33.5t63.5 -52t47.5 -66.5l-69 -36q-28 56 -80.5 92t-120.5 36q-49 0 -90.5 -19t-72 -51t-47.5 -74.5t-17 -89.5
q0 -49 17.5 -91.5t48 -74t72 -50t88.5 -18.5q75 0 127 38.5t79 98.5l72 -32q-39 -81 -111 -129t-165 -48z" />
    <glyph glyph-name="cacute.smcp" unicode="&#xe234;" horiz-adv-x="661" 
d="M428 816h100l-145 -162h-72zM355 -8q-66 0 -122.5 24.5t-97.5 66.5t-64 97.5t-23 117.5q0 64 24 120t65.5 97t97 65t118.5 24q43 0 84 -12t76 -33.5t63.5 -52t47.5 -66.5l-69 -36q-28 56 -80.5 92t-120.5 36q-49 0 -90.5 -19t-72 -51t-47.5 -74.5t-17 -89.5
q0 -49 17.5 -91.5t48 -74t72 -50t88.5 -18.5q75 0 127 38.5t79 98.5l72 -32q-39 -81 -111 -129t-165 -48z" />
    <glyph glyph-name="ccircumflex.smcp" unicode="&#xf628;" horiz-adv-x="661" 
d="M355 -8q-66 0 -122.5 24.5t-97.5 66.5t-64 97.5t-23 117.5q0 64 24 120t65.5 97t97 65t118.5 24q43 0 84 -12t76 -33.5t63.5 -52t47.5 -66.5l-69 -36q-28 56 -80.5 92t-120.5 36q-49 0 -90.5 -19t-72 -51t-47.5 -74.5t-17 -89.5q0 -49 17.5 -91.5t48 -74t72 -50
t88.5 -18.5q75 0 127 38.5t79 98.5l72 -32q-39 -81 -111 -129t-165 -48zM324 813h66l119 -162h-80l-72 100l-71 -100h-81z" />
    <glyph glyph-name="ccircumflex.smcp" unicode="&#xe235;" horiz-adv-x="661" 
d="M355 -8q-66 0 -122.5 24.5t-97.5 66.5t-64 97.5t-23 117.5q0 64 24 120t65.5 97t97 65t118.5 24q43 0 84 -12t76 -33.5t63.5 -52t47.5 -66.5l-69 -36q-28 56 -80.5 92t-120.5 36q-49 0 -90.5 -19t-72 -51t-47.5 -74.5t-17 -89.5q0 -49 17.5 -91.5t48 -74t72 -50
t88.5 -18.5q75 0 127 38.5t79 98.5l72 -32q-39 -81 -111 -129t-165 -48zM324 813h66l119 -162h-80l-72 100l-71 -100h-81z" />
    <glyph glyph-name="ccaron.smcp" unicode="&#xf644;" horiz-adv-x="661" 
d="M355 -8q-66 0 -122.5 24.5t-97.5 66.5t-64 97.5t-23 117.5q0 64 24 120t65.5 97t97 65t118.5 24q43 0 84 -12t76 -33.5t63.5 -52t47.5 -66.5l-69 -36q-28 56 -80.5 92t-120.5 36q-49 0 -90.5 -19t-72 -51t-47.5 -74.5t-17 -89.5q0 -49 17.5 -91.5t48 -74t72 -50
t88.5 -18.5q75 0 127 38.5t79 98.5l72 -32q-39 -81 -111 -129t-165 -48zM204 816h80l71 -100l72 100h80l-119 -162h-65z" />
    <glyph glyph-name="ccaron.smcp" unicode="&#xe236;" horiz-adv-x="661" 
d="M355 -8q-66 0 -122.5 24.5t-97.5 66.5t-64 97.5t-23 117.5q0 64 24 120t65.5 97t97 65t118.5 24q43 0 84 -12t76 -33.5t63.5 -52t47.5 -66.5l-69 -36q-28 56 -80.5 92t-120.5 36q-49 0 -90.5 -19t-72 -51t-47.5 -74.5t-17 -89.5q0 -49 17.5 -91.5t48 -74t72 -50
t88.5 -18.5q75 0 127 38.5t79 98.5l72 -32q-39 -81 -111 -129t-165 -48zM204 816h80l71 -100l72 100h80l-119 -162h-65z" />
    <glyph glyph-name="cdotaccent.smcp" unicode="&#xf629;" horiz-adv-x="661" 
d="M355 -8q-66 0 -122.5 24.5t-97.5 66.5t-64 97.5t-23 117.5q0 64 24 120t65.5 97t97 65t118.5 24q43 0 84 -12t76 -33.5t63.5 -52t47.5 -66.5l-69 -36q-28 56 -80.5 92t-120.5 36q-49 0 -90.5 -19t-72 -51t-47.5 -74.5t-17 -89.5q0 -49 17.5 -91.5t48 -74t72 -50
t88.5 -18.5q75 0 127 38.5t79 98.5l72 -32q-39 -81 -111 -129t-165 -48zM298 713q0 26 17.5 43.5t43.5 17.5q27 0 44.5 -17.5t17.5 -43.5t-17.5 -44t-44.5 -18t-44 18t-17 44z" />
    <glyph glyph-name="cdotaccent.smcp" unicode="&#xe237;" horiz-adv-x="661" 
d="M355 -8q-66 0 -122.5 24.5t-97.5 66.5t-64 97.5t-23 117.5q0 64 24 120t65.5 97t97 65t118.5 24q43 0 84 -12t76 -33.5t63.5 -52t47.5 -66.5l-69 -36q-28 56 -80.5 92t-120.5 36q-49 0 -90.5 -19t-72 -51t-47.5 -74.5t-17 -89.5q0 -49 17.5 -91.5t48 -74t72 -50
t88.5 -18.5q75 0 127 38.5t79 98.5l72 -32q-39 -81 -111 -129t-165 -48zM298 713q0 26 17.5 43.5t43.5 17.5q27 0 44.5 -17.5t17.5 -43.5t-17.5 -44t-44.5 -18t-44 18t-17 44z" />
    <glyph glyph-name="ccedilla.smcp" unicode="&#xf7e7;" horiz-adv-x="661" 
d="M349 -234q-48 0 -83.5 15t-62.5 41l61 37q19 -15 37.5 -25.5t47.5 -10.5t48.5 12t19.5 29q0 36 -71 36h-41v96q-57 9 -104 36t-81 67.5t-53 91.5t-19 107q0 64 24 120t65.5 97t97 65t118.5 24q43 0 84 -12t76 -33.5t63.5 -52t47.5 -66.5l-69 -36q-28 56 -80.5 92
t-120.5 36q-49 0 -90.5 -19t-72 -51t-47.5 -74.5t-17 -89.5q0 -49 17.5 -91.5t48 -74t72 -50t88.5 -18.5q75 0 127 38.5t79 98.5l72 -32q-38 -78 -105.5 -125t-155.5 -51v-45q54 0 86.5 -23t32.5 -58q0 -22 -11 -40.5t-30.5 -32t-45 -21t-53.5 -7.5z" />
    <glyph glyph-name="ccedilla.smcp" unicode="&#xe238;" horiz-adv-x="661" 
d="M349 -234q-48 0 -83.5 15t-62.5 41l61 37q19 -15 37.5 -25.5t47.5 -10.5t48.5 12t19.5 29q0 36 -71 36h-41v96q-57 9 -104 36t-81 67.5t-53 91.5t-19 107q0 64 24 120t65.5 97t97 65t118.5 24q43 0 84 -12t76 -33.5t63.5 -52t47.5 -66.5l-69 -36q-28 56 -80.5 92
t-120.5 36q-49 0 -90.5 -19t-72 -51t-47.5 -74.5t-17 -89.5q0 -49 17.5 -91.5t48 -74t72 -50t88.5 -18.5q75 0 127 38.5t79 98.5l72 -32q-38 -78 -105.5 -125t-155.5 -51v-45q54 0 86.5 -23t32.5 -58q0 -22 -11 -40.5t-30.5 -32t-45 -21t-53.5 -7.5z" />
    <glyph glyph-name="dcaron.smcp" unicode="&#xf645;" horiz-adv-x="595" 
d="M70 596h166q71 0 128.5 -23t98 -63t62.5 -94.5t22 -117.5q0 -64 -23 -118.5t-64.5 -94.5t-98 -62.5t-122.5 -22.5h-169v596zM147 524v-451h85q52 0 95.5 17t74.5 47.5t48 71.5t17 89q0 49 -16 90.5t-46.5 71.5t-74.5 47t-101 17h-82zM117 816h80l71 -100l72 100h80
l-119 -162h-65z" />
    <glyph glyph-name="dcaron.smcp" unicode="&#xe239;" horiz-adv-x="595" 
d="M70 596h166q71 0 128.5 -23t98 -63t62.5 -94.5t22 -117.5q0 -64 -23 -118.5t-64.5 -94.5t-98 -62.5t-122.5 -22.5h-169v596zM147 524v-451h85q52 0 95.5 17t74.5 47.5t48 71.5t17 89q0 49 -16 90.5t-46.5 71.5t-74.5 47t-101 17h-82zM117 816h80l71 -100l72 100h80
l-119 -162h-65z" />
    <glyph glyph-name="dcroat.smcp" unicode="&#xf646;" horiz-adv-x="623" 
d="M28 335h70v261h166q71 0 128.5 -23t98 -63t62.5 -94.5t22 -117.5q0 -64 -23 -118.5t-64.5 -94.5t-98 -62.5t-122.5 -22.5h-169v265h-70v70zM175 265v-192h85q52 0 95.5 17t74.5 47.5t48 71.5t17 89q0 49 -16 90.5t-46.5 71.5t-74.5 47t-101 17h-82v-189h146v-70h-146z
" />
    <glyph glyph-name="dcroat.smcp" unicode="&#xe23c;" horiz-adv-x="623" 
d="M28 335h70v261h166q71 0 128.5 -23t98 -63t62.5 -94.5t22 -117.5q0 -64 -23 -118.5t-64.5 -94.5t-98 -62.5t-122.5 -22.5h-169v265h-70v70zM175 265v-192h85q52 0 95.5 17t74.5 47.5t48 71.5t17 89q0 49 -16 90.5t-46.5 71.5t-74.5 47t-101 17h-82v-189h146v-70h-146z
" />
    <glyph glyph-name="eacute.smcp" unicode="&#xf7e9;" horiz-adv-x="485" 
d="M70 596h359v-72h-282v-189h282v-72h-282v-190h282v-73h-359v596zM312 816h100l-145 -162h-72z" />
    <glyph glyph-name="eacute.smcp" unicode="&#xe23d;" horiz-adv-x="485" 
d="M70 596h359v-72h-282v-189h282v-72h-282v-190h282v-73h-359v596zM312 816h100l-145 -162h-72z" />
    <glyph glyph-name="egrave.smcp" unicode="&#xf7e8;" horiz-adv-x="485" 
d="M70 596h359v-72h-282v-189h282v-72h-282v-190h282v-73h-359v596zM86 816h99l118 -162h-72z" />
    <glyph glyph-name="egrave.smcp" unicode="&#xe23e;" horiz-adv-x="485" 
d="M70 596h359v-72h-282v-189h282v-72h-282v-190h282v-73h-359v596zM86 816h99l118 -162h-72z" />
    <glyph glyph-name="ecircumflex.smcp" unicode="&#xf7ea;" horiz-adv-x="485" 
d="M70 596h359v-72h-282v-189h282v-72h-282v-190h282v-73h-359v596zM219 816h66l119 -162h-80l-72 100l-71 -100h-81z" />
    <glyph glyph-name="ecircumflex.smcp" unicode="&#xe23f;" horiz-adv-x="485" 
d="M70 596h359v-72h-282v-189h282v-72h-282v-190h282v-73h-359v596zM219 816h66l119 -162h-80l-72 100l-71 -100h-81z" />
    <glyph glyph-name="gcommaaccent.smcp" unicode="&#xf64c;" horiz-adv-x="702" 
d="M356 -8q-65 0 -121.5 24t-98 66t-65 97.5t-23.5 118.5t24 119t65.5 97.5t98 65.5t121.5 24q44 0 84 -11t74 -31.5t61.5 -49t46.5 -62.5l-68 -40q-29 55 -80 88.5t-118 33.5q-50 0 -92.5 -19t-73 -51t-47.5 -74.5t-17 -89.5q0 -48 17 -90.5t47.5 -74.5t72.5 -50.5
t92 -18.5q46 0 83 14t64 39t44.5 59t24.5 73h-225v74h307v-25q0 -62 -21 -117.5t-59.5 -97.5t-93.5 -66.5t-124 -24.5zM279 -274l41 204h71l-59 -204h-53z" />
    <glyph glyph-name="gcommaaccent.smcp" unicode="&#xe240;" horiz-adv-x="702" 
d="M356 -8q-65 0 -121.5 24t-98 66t-65 97.5t-23.5 118.5t24 119t65.5 97.5t98 65.5t121.5 24q44 0 84 -11t74 -31.5t61.5 -49t46.5 -62.5l-68 -40q-29 55 -80 88.5t-118 33.5q-50 0 -92.5 -19t-73 -51t-47.5 -74.5t-17 -89.5q0 -48 17 -90.5t47.5 -74.5t72.5 -50.5
t92 -18.5q46 0 83 14t64 39t44.5 59t24.5 73h-225v74h307v-25q0 -62 -21 -117.5t-59.5 -97.5t-93.5 -66.5t-124 -24.5zM279 -274l41 204h71l-59 -204h-53z" />
    <glyph glyph-name="ecaron.smcp" unicode="&#xf647;" horiz-adv-x="485" 
d="M70 596h359v-72h-282v-189h282v-72h-282v-190h282v-73h-359v596zM99 816h80l71 -100l72 100h80l-119 -162h-65z" />
    <glyph glyph-name="ecaron.smcp" unicode="&#xe241;" horiz-adv-x="485" 
d="M70 596h359v-72h-282v-189h282v-72h-282v-190h282v-73h-359v596zM99 816h80l71 -100l72 100h80l-119 -162h-65z" />
    <glyph glyph-name="emacron.smcp" unicode="&#xf649;" horiz-adv-x="485" 
d="M70 596h359v-72h-282v-189h282v-72h-282v-190h282v-73h-359v596zM118 721h264v-67h-264v67z" />
    <glyph glyph-name="emacron.smcp" unicode="&#xe242;" horiz-adv-x="485" 
d="M70 596h359v-72h-282v-189h282v-72h-282v-190h282v-73h-359v596zM118 721h264v-67h-264v67z" />
    <glyph glyph-name="ebreve.smcp" unicode="&#xf62a;" horiz-adv-x="485" 
d="M70 596h359v-72h-282v-189h282v-72h-282v-190h282v-73h-359v596zM250 647q-41 0 -71.5 13t-50.5 35t-29.5 52t-9.5 63h66q0 -48 24 -76t71 -29q45 1 69.5 29t24.5 76h68q0 -33 -11.5 -63t-32.5 -52t-51 -35t-67 -13z" />
    <glyph glyph-name="ebreve.smcp" unicode="&#xe243;" horiz-adv-x="485" 
d="M70 596h359v-72h-282v-189h282v-72h-282v-190h282v-73h-359v596zM250 647q-41 0 -71.5 13t-50.5 35t-29.5 52t-9.5 63h66q0 -48 24 -76t71 -29q45 1 69.5 29t24.5 76h68q0 -33 -11.5 -63t-32.5 -52t-51 -35t-67 -13z" />
    <glyph glyph-name="edotaccent.smcp" unicode="&#xf648;" horiz-adv-x="485" 
d="M70 596h359v-72h-282v-189h282v-72h-282v-190h282v-73h-359v596zM197 716q0 26 17.5 43.5t43.5 17.5q27 0 44.5 -17.5t17.5 -43.5t-17.5 -44t-44.5 -18t-44 18t-17 44z" />
    <glyph glyph-name="edotaccent.smcp" unicode="&#xe246;" horiz-adv-x="485" 
d="M70 596h359v-72h-282v-189h282v-72h-282v-190h282v-73h-359v596zM197 716q0 26 17.5 43.5t43.5 17.5q27 0 44.5 -17.5t17.5 -43.5t-17.5 -44t-44.5 -18t-44 18t-17 44z" />
    <glyph glyph-name="eogonek.smcp" unicode="&#xf64a;" horiz-adv-x="485" 
d="M70 596h359v-72h-282v-189h282v-72h-282v-190h282v-73q-38 -23 -62 -39t-38 -28.5t-19.5 -22.5t-5.5 -21q0 -20 16.5 -30.5t40.5 -10.5q25 0 41.5 10t32.5 24l61 -42q-26 -23 -62 -39.5t-73 -16.5q-30 0 -55 8t-42.5 21.5t-27.5 32t-10 39.5q0 29 17.5 57.5t63.5 57.5
h-237v596z" />
    <glyph glyph-name="eogonek.smcp" unicode="&#xe249;" horiz-adv-x="485" 
d="M70 596h359v-72h-282v-189h282v-72h-282v-190h282v-73q-38 -23 -62 -39t-38 -28.5t-19.5 -22.5t-5.5 -21q0 -20 16.5 -30.5t40.5 -10.5q25 0 41.5 10t32.5 24l61 -42q-26 -23 -62 -39.5t-73 -16.5q-30 0 -55 8t-42.5 21.5t-27.5 32t-10 39.5q0 29 17.5 57.5t63.5 57.5
h-237v596z" />
    <glyph glyph-name="gcircumflex.smcp" unicode="&#xf62c;" horiz-adv-x="702" 
d="M356 -8q-65 0 -121.5 24t-98 66t-65 97.5t-23.5 118.5t24 119t65.5 97.5t98 65.5t121.5 24q44 0 84 -11t74 -31.5t61.5 -49t46.5 -62.5l-68 -40q-29 55 -80 88.5t-118 33.5q-50 0 -92.5 -19t-73 -51t-47.5 -74.5t-17 -89.5q0 -48 17 -90.5t47.5 -74.5t72.5 -50.5
t92 -18.5q46 0 83 14t64 39t44.5 59t24.5 73h-225v74h307v-25q0 -62 -21 -117.5t-59.5 -97.5t-93.5 -66.5t-124 -24.5zM319 815h66l119 -162h-80l-72 100l-71 -100h-81z" />
    <glyph glyph-name="gcircumflex.smcp" unicode="&#xe24b;" horiz-adv-x="702" 
d="M356 -8q-65 0 -121.5 24t-98 66t-65 97.5t-23.5 118.5t24 119t65.5 97.5t98 65.5t121.5 24q44 0 84 -11t74 -31.5t61.5 -49t46.5 -62.5l-68 -40q-29 55 -80 88.5t-118 33.5q-50 0 -92.5 -19t-73 -51t-47.5 -74.5t-17 -89.5q0 -48 17 -90.5t47.5 -74.5t72.5 -50.5
t92 -18.5q46 0 83 14t64 39t44.5 59t24.5 73h-225v74h307v-25q0 -62 -21 -117.5t-59.5 -97.5t-93.5 -66.5t-124 -24.5zM319 815h66l119 -162h-80l-72 100l-71 -100h-81z" />
    <glyph glyph-name="gbreve.smcp" unicode="&#xf64b;" horiz-adv-x="702" 
d="M356 -8q-65 0 -121.5 24t-98 66t-65 97.5t-23.5 118.5t24 119t65.5 97.5t98 65.5t121.5 24q44 0 84 -11t74 -31.5t61.5 -49t46.5 -62.5l-68 -40q-29 55 -80 88.5t-118 33.5q-50 0 -92.5 -19t-73 -51t-47.5 -74.5t-17 -89.5q0 -48 17 -90.5t47.5 -74.5t72.5 -50.5
t92 -18.5q46 0 83 14t64 39t44.5 59t24.5 73h-225v74h307v-25q0 -62 -21 -117.5t-59.5 -97.5t-93.5 -66.5t-124 -24.5zM353 653q-41 0 -71.5 13t-50.5 35t-29.5 52t-9.5 63h66q0 -48 24 -76t71 -29q45 1 69.5 29t24.5 76h68q0 -33 -11.5 -63t-32.5 -52t-51 -35t-67 -13z" />
    <glyph glyph-name="gbreve.smcp" unicode="&#xe24e;" horiz-adv-x="702" 
d="M356 -8q-65 0 -121.5 24t-98 66t-65 97.5t-23.5 118.5t24 119t65.5 97.5t98 65.5t121.5 24q44 0 84 -11t74 -31.5t61.5 -49t46.5 -62.5l-68 -40q-29 55 -80 88.5t-118 33.5q-50 0 -92.5 -19t-73 -51t-47.5 -74.5t-17 -89.5q0 -48 17 -90.5t47.5 -74.5t72.5 -50.5
t92 -18.5q46 0 83 14t64 39t44.5 59t24.5 73h-225v74h307v-25q0 -62 -21 -117.5t-59.5 -97.5t-93.5 -66.5t-124 -24.5zM353 653q-41 0 -71.5 13t-50.5 35t-29.5 52t-9.5 63h66q0 -48 24 -76t71 -29q45 1 69.5 29t24.5 76h68q0 -33 -11.5 -63t-32.5 -52t-51 -35t-67 -13z" />
    <glyph glyph-name="gdotaccent.smcp" unicode="&#xf62d;" horiz-adv-x="702" 
d="M356 -8q-65 0 -121.5 24t-98 66t-65 97.5t-23.5 118.5t24 119t65.5 97.5t98 65.5t121.5 24q44 0 84 -11t74 -31.5t61.5 -49t46.5 -62.5l-68 -40q-29 55 -80 88.5t-118 33.5q-50 0 -92.5 -19t-73 -51t-47.5 -74.5t-17 -89.5q0 -48 17 -90.5t47.5 -74.5t72.5 -50.5
t92 -18.5q46 0 83 14t64 39t44.5 59t24.5 73h-225v74h307v-25q0 -62 -21 -117.5t-59.5 -97.5t-93.5 -66.5t-124 -24.5zM295 723q0 26 17.5 43.5t43.5 17.5q27 0 44.5 -17.5t17.5 -43.5t-17.5 -44t-44.5 -18t-44 18t-17 44z" />
    <glyph glyph-name="gdotaccent.smcp" unicode="&#xe24f;" horiz-adv-x="702" 
d="M356 -8q-65 0 -121.5 24t-98 66t-65 97.5t-23.5 118.5t24 119t65.5 97.5t98 65.5t121.5 24q44 0 84 -11t74 -31.5t61.5 -49t46.5 -62.5l-68 -40q-29 55 -80 88.5t-118 33.5q-50 0 -92.5 -19t-73 -51t-47.5 -74.5t-17 -89.5q0 -48 17 -90.5t47.5 -74.5t72.5 -50.5
t92 -18.5q46 0 83 14t64 39t44.5 59t24.5 73h-225v74h307v-25q0 -62 -21 -117.5t-59.5 -97.5t-93.5 -66.5t-124 -24.5zM295 723q0 26 17.5 43.5t43.5 17.5q27 0 44.5 -17.5t17.5 -43.5t-17.5 -44t-44.5 -18t-44 18t-17 44z" />
    <glyph glyph-name="hcircumflex.smcp" unicode="&#xf62f;" horiz-adv-x="585" 
d="M438 263h-291v-263h-77v596h77v-260h291v260h77v-596h-77v263zM256 815h66l119 -162h-80l-72 100l-71 -100h-81z" />
    <glyph glyph-name="hcircumflex.smcp" unicode="&#xe253;" horiz-adv-x="585" 
d="M438 263h-291v-263h-77v596h77v-260h291v260h77v-596h-77v263zM256 815h66l119 -162h-80l-72 100l-71 -100h-81z" />
    <glyph glyph-name="hbar.smcp" unicode="&#xf62e;" horiz-adv-x="637" 
d="M464 263h-291v-263h-77v430h-70v58h70v108h77v-108h291v108h77v-108h70v-58h-70v-430h-77v263zM173 336h291v94h-291v-94z" />
    <glyph glyph-name="hbar.smcp" unicode="&#xe257;" horiz-adv-x="637" 
d="M464 263h-291v-263h-77v430h-70v58h70v108h77v-108h291v108h77v-108h70v-58h-70v-430h-77v263zM173 336h291v94h-291v-94z" />
    <glyph glyph-name="iacute.smcp" unicode="&#xf7ed;" horiz-adv-x="229" 
d="M75 596h79v-596h-79v596zM189 816h100l-145 -162h-72z" />
    <glyph glyph-name="iacute.smcp" unicode="&#xe258;" horiz-adv-x="229" 
d="M75 596h79v-596h-79v596zM189 816h100l-145 -162h-72z" />
    <glyph glyph-name="igrave.smcp" unicode="&#xf7ec;" horiz-adv-x="229" 
d="M75 596h79v-596h-79v596zM-68 816h99l118 -162h-72z" />
    <glyph glyph-name="igrave.smcp" unicode="&#xe259;" horiz-adv-x="229" 
d="M75 596h79v-596h-79v596zM-68 816h99l118 -162h-72z" />
    <glyph glyph-name="icircumflex.smcp" unicode="&#xf7ee;" horiz-adv-x="229" 
d="M75 596h79v-596h-79v596zM79 808h66l119 -162h-80l-72 100l-71 -100h-81z" />
    <glyph glyph-name="icircumflex.smcp" unicode="&#xe25a;" horiz-adv-x="229" 
d="M75 596h79v-596h-79v596zM79 808h66l119 -162h-80l-72 100l-71 -100h-81z" />
    <glyph glyph-name="idieresis.smcp" unicode="&#xf7ef;" horiz-adv-x="229" 
d="M75 596h79v-596h-79v596zM-56 723q0 24 16.5 40t39.5 16q24 0 40 -16t16 -40q0 -23 -16 -39.5t-40 -16.5q-25 0 -40.5 16.5t-15.5 39.5zM173 723q0 24 16.5 40t39.5 16q24 0 40 -16t16 -40q0 -23 -16 -39.5t-40 -16.5q-25 0 -40.5 16.5t-15.5 39.5z" />
    <glyph glyph-name="idieresis.smcp" unicode="&#xe25b;" horiz-adv-x="229" 
d="M75 596h79v-596h-79v596zM-56 723q0 24 16.5 40t39.5 16q24 0 40 -16t16 -40q0 -23 -16 -39.5t-40 -16.5q-25 0 -40.5 16.5t-15.5 39.5zM173 723q0 24 16.5 40t39.5 16q24 0 40 -16t16 -40q0 -23 -16 -39.5t-40 -16.5q-25 0 -40.5 16.5t-15.5 39.5z" />
    <glyph glyph-name="itilde.smcp" unicode="&#xf632;" horiz-adv-x="229" 
d="M75 596h79v-596h-79v596zM-58 654q0 55 27.5 87.5t71.5 32.5q25 0 44 -8t37 -19q17 -11 32 -19.5t31 -8.5q18 0 28.5 13t10.5 39h62q0 -56 -25.5 -88.5t-74.5 -32.5q-29 0 -50.5 11t-40.5 22q-14 8 -26 15t-28 7q-37 0 -37 -51h-62z" />
    <glyph glyph-name="itilde.smcp" unicode="&#xe25c;" horiz-adv-x="229" 
d="M75 596h79v-596h-79v596zM-58 654q0 55 27.5 87.5t71.5 32.5q25 0 44 -8t37 -19q17 -11 32 -19.5t31 -8.5q18 0 28.5 13t10.5 39h62q0 -56 -25.5 -88.5t-74.5 -32.5q-29 0 -50.5 11t-40.5 22q-14 8 -26 15t-28 7q-37 0 -37 -51h-62z" />
    <glyph glyph-name="imacron.smcp" unicode="&#xf64d;" horiz-adv-x="229" 
d="M75 596h79v-596h-79v596zM-20 721h264v-67h-264v67z" />
    <glyph glyph-name="imacron.smcp" unicode="&#xe25e;" horiz-adv-x="229" 
d="M75 596h79v-596h-79v596zM-20 721h264v-67h-264v67z" />
    <glyph glyph-name="ibreve.smcp" unicode="&#xf630;" horiz-adv-x="229" 
d="M75 596h79v-596h-79v596zM113 647q-41 0 -71.5 13t-50.5 35t-29.5 52t-9.5 63h66q0 -48 24 -76t71 -29q45 1 69.5 29t24.5 76h68q0 -33 -11.5 -63t-32.5 -52t-51 -35t-67 -13z" />
    <glyph glyph-name="ibreve.smcp" unicode="&#xe25f;" horiz-adv-x="229" 
d="M75 596h79v-596h-79v596zM113 647q-41 0 -71.5 13t-50.5 35t-29.5 52t-9.5 63h66q0 -48 24 -76t71 -29q45 1 69.5 29t24.5 76h68q0 -33 -11.5 -63t-32.5 -52t-51 -35t-67 -13z" />
    <glyph glyph-name="idotaccent.smcp" unicode="&#xf666;" horiz-adv-x="229" 
d="M75 596h79v-596h-79v596zM52 728q0 26 17.5 43.5t43.5 17.5q27 0 44.5 -17.5t17.5 -43.5t-17.5 -44t-44.5 -18t-44 18t-17 44z" />
    <glyph glyph-name="idotaccent.smcp" unicode="&#xe262;" horiz-adv-x="229" 
d="M75 596h79v-596h-79v596zM52 728q0 26 17.5 43.5t43.5 17.5q27 0 44.5 -17.5t17.5 -43.5t-17.5 -44t-44.5 -18t-44 18t-17 44z" />
    <glyph glyph-name="iogonek.smcp" unicode="&#xf64e;" horiz-adv-x="229" 
d="M124 -217q-32 0 -55 9t-38 24.5t-22 35t-7 40.5q0 34 20.5 65t52.5 58v581h79v-596q-41 -32 -60 -56.5t-19 -48.5q0 -20 13.5 -33t35.5 -13q21 0 35.5 7.5t28.5 18.5l44 -54q-23 -17 -51.5 -27.5t-56.5 -10.5z" />
    <glyph glyph-name="iogonek.smcp" unicode="&#xe264;" horiz-adv-x="229" 
d="M124 -217q-32 0 -55 9t-38 24.5t-22 35t-7 40.5q0 34 20.5 65t52.5 58v581h79v-596q-41 -32 -60 -56.5t-19 -48.5q0 -20 13.5 -33t35.5 -13q21 0 35.5 7.5t28.5 18.5l44 -54q-23 -17 -51.5 -27.5t-56.5 -10.5z" />
    <glyph glyph-name="jcircumflex.smcp" unicode="&#xf633;" horiz-adv-x="402" 
d="M180 -8q-59 0 -101 27.5t-60 71.5l73 36q11 -27 33 -45t54 -18q38 0 59.5 25.5t21.5 70.5v436h77v-432q0 -84 -41.5 -128t-115.5 -44zM260 806h66l119 -162h-80l-72 100l-71 -100h-81z" />
    <glyph glyph-name="jcircumflex.smcp" unicode="&#xe265;" horiz-adv-x="402" 
d="M180 -8q-59 0 -101 27.5t-60 71.5l73 36q11 -27 33 -45t54 -18q38 0 59.5 25.5t21.5 70.5v436h77v-432q0 -84 -41.5 -128t-115.5 -44zM260 806h66l119 -162h-80l-72 100l-71 -100h-81z" />
    <glyph glyph-name="kcommaaccent.smcp" unicode="&#xf64f;" horiz-adv-x="551" 
d="M247 307l-100 -111v-196h-77v596h77v-303l272 303h95l-212 -235l221 -361h-88zM213 -254l41 204h71l-59 -204h-53z" />
    <glyph glyph-name="kcommaaccent.smcp" unicode="&#xe268;" horiz-adv-x="551" 
d="M247 307l-100 -111v-196h-77v596h77v-303l272 303h95l-212 -235l221 -361h-88zM213 -254l41 204h71l-59 -204h-53z" />
    <glyph glyph-name="lacute.smcp" unicode="&#xf650;" horiz-adv-x="447" 
d="M70 596h77v-522h253v-74h-330v596zM184 816h100l-145 -162h-72z" />
    <glyph glyph-name="lacute.smcp" unicode="&#xe26b;" horiz-adv-x="447" 
d="M70 596h77v-522h253v-74h-330v596zM184 816h100l-145 -162h-72z" />
    <glyph glyph-name="lcaron.smcp" unicode="&#xf651;" horiz-adv-x="447" 
d="M70 596h77v-522h253v-74h-330v596zM340 596h71l-59 -184h-53z" />
    <glyph glyph-name="lcaron.smcp" unicode="&#xe26c;" horiz-adv-x="447" 
d="M70 596h77v-522h253v-74h-330v596zM340 596h71l-59 -184h-53z" />
    <glyph glyph-name="lcommaaccent.smcp" unicode="&#xf652;" horiz-adv-x="447" 
d="M70 596h77v-522h253v-74h-330v596zM162 -254l41 204h71l-59 -204h-53z" />
    <glyph glyph-name="lcommaaccent.smcp" unicode="&#xe26d;" horiz-adv-x="447" 
d="M70 596h77v-522h253v-74h-330v596zM162 -254l41 204h71l-59 -204h-53z" />
    <glyph glyph-name="ldot.smcp" unicode="&#xf634;" horiz-adv-x="447" 
d="M70 596h77v-522h253v-74h-330v596zM299 306q0 26 17.5 43.5t43.5 17.5q27 0 44.5 -17.5t17.5 -43.5t-17.5 -44t-44.5 -18t-44 18t-17 44z" />
    <glyph glyph-name="ldot.smcp" unicode="&#xe271;" horiz-adv-x="447" 
d="M70 596h77v-522h253v-74h-330v596zM299 306q0 26 17.5 43.5t43.5 17.5q27 0 44.5 -17.5t17.5 -43.5t-17.5 -44t-44.5 -18t-44 18t-17 44z" />
    <glyph glyph-name="lslash.smcp" unicode="&#xf6f9;" horiz-adv-x="470" 
d="M0 249l93 43v304h77v-269l157 73l23 -56l-180 -83v-187h253v-74h-330v226l-70 -32z" />
    <glyph glyph-name="lslash.smcp" unicode="&#xe272;" horiz-adv-x="470" 
d="M0 249l93 43v304h77v-269l157 73l23 -56l-180 -83v-187h253v-74h-330v226l-70 -32z" />
    <glyph glyph-name="nacute.smcp" unicode="&#xf653;" horiz-adv-x="629" 
d="M70 596h86l326 -471v471h77v-596h-82l-330 476v-476h-77v596zM397 808h100l-145 -162h-72z" />
    <glyph glyph-name="nacute.smcp" unicode="&#xe276;" horiz-adv-x="629" 
d="M70 596h86l326 -471v471h77v-596h-82l-330 476v-476h-77v596zM397 808h100l-145 -162h-72z" />
    <glyph glyph-name="ntilde.smcp" unicode="&#xe279;" horiz-adv-x="629" 
d="M70 596h86l326 -471v471h77v-596h-82l-330 476v-476h-77v596zM145 654q0 55 27.5 87.5t71.5 32.5q25 0 44 -8t37 -19q17 -11 32 -19.5t31 -8.5q18 0 28.5 13t10.5 39h62q0 -56 -25.5 -88.5t-74.5 -32.5q-29 0 -50.5 11t-40.5 22q-14 8 -26 15t-28 7q-37 0 -37 -51h-62z
" />
    <glyph glyph-name="ncaron.smcp" unicode="&#xf654;" horiz-adv-x="629" 
d="M70 596h86l326 -471v471h77v-596h-82l-330 476v-476h-77v596zM165 808h80l71 -100l72 100h80l-119 -162h-65z" />
    <glyph glyph-name="ncaron.smcp" unicode="&#xe27a;" horiz-adv-x="629" 
d="M70 596h86l326 -471v471h77v-596h-82l-330 476v-476h-77v596zM165 808h80l71 -100l72 100h80l-119 -162h-65z" />
    <glyph glyph-name="ncommaaccent.smcp" unicode="&#xf655;" horiz-adv-x="629" 
d="M70 596h86l326 -471v471h77v-596h-82l-330 476v-476h-77v596zM250 -254l41 204h71l-59 -204h-53z" />
    <glyph glyph-name="ncommaaccent.smcp" unicode="&#xe27d;" horiz-adv-x="629" 
d="M70 596h86l326 -471v471h77v-596h-82l-330 476v-476h-77v596zM250 -254l41 204h71l-59 -204h-53z" />
    <glyph glyph-name="oacute.smcp" unicode="&#xf7f3;" horiz-adv-x="707" 
d="M420 816h100l-145 -162h-72zM353 -8q-63 0 -119 24t-97 65.5t-65 97.5t-24 119t24 119t65 97.5t97 65.5t119 24t119 -24t97.5 -65.5t65.5 -97.5t24 -119t-24 -119t-65.5 -97.5t-97.5 -65.5t-119 -24zM353 64q48 0 89.5 18.5t71.5 50t47.5 74.5t17.5 91t-17.5 90.5
t-47.5 74.5t-71.5 50.5t-89.5 18.5t-89.5 -18.5t-71.5 -50.5t-47.5 -74.5t-17.5 -90.5t17.5 -91t47.5 -74.5t71.5 -50t89.5 -18.5z" />
    <glyph glyph-name="oacute.smcp" unicode="&#xe281;" horiz-adv-x="707" 
d="M420 816h100l-145 -162h-72zM353 -8q-63 0 -119 24t-97 65.5t-65 97.5t-24 119t24 119t65 97.5t97 65.5t119 24t119 -24t97.5 -65.5t65.5 -97.5t24 -119t-24 -119t-65.5 -97.5t-97.5 -65.5t-119 -24zM353 64q48 0 89.5 18.5t71.5 50t47.5 74.5t17.5 91t-17.5 90.5
t-47.5 74.5t-71.5 50.5t-89.5 18.5t-89.5 -18.5t-71.5 -50.5t-47.5 -74.5t-17.5 -90.5t17.5 -91t47.5 -74.5t71.5 -50t89.5 -18.5z" />
    <glyph glyph-name="ograve.smcp" unicode="&#xf7f2;" horiz-adv-x="707" 
d="M353 -8q-63 0 -119 24t-97 65.5t-65 97.5t-24 119t24 119t65 97.5t97 65.5t119 24t119 -24t97.5 -65.5t65.5 -97.5t24 -119t-24 -119t-65.5 -97.5t-97.5 -65.5t-119 -24zM353 64q48 0 89.5 18.5t71.5 50t47.5 74.5t17.5 91t-17.5 90.5t-47.5 74.5t-71.5 50.5t-89.5 18.5
t-89.5 -18.5t-71.5 -50.5t-47.5 -74.5t-17.5 -90.5t17.5 -91t47.5 -74.5t71.5 -50t89.5 -18.5zM172 816h99l118 -162h-72z" />
    <glyph glyph-name="ograve.smcp" unicode="&#xe282;" horiz-adv-x="707" 
d="M353 -8q-63 0 -119 24t-97 65.5t-65 97.5t-24 119t24 119t65 97.5t97 65.5t119 24t119 -24t97.5 -65.5t65.5 -97.5t24 -119t-24 -119t-65.5 -97.5t-97.5 -65.5t-119 -24zM353 64q48 0 89.5 18.5t71.5 50t47.5 74.5t17.5 91t-17.5 90.5t-47.5 74.5t-71.5 50.5t-89.5 18.5
t-89.5 -18.5t-71.5 -50.5t-47.5 -74.5t-17.5 -90.5t17.5 -91t47.5 -74.5t71.5 -50t89.5 -18.5zM172 816h99l118 -162h-72z" />
    </font>
</defs>
</svg>
